<?xml version="1.0" standalone="no"?>
<!DOCTYPE svg PUBLIC "-//W3C//DTD SVG 1.1//EN" "http://www.w3.org/Graphics/SVG/1.1/DTD/svg11.dtd" >
<svg xmlns="http://www.w3.org/2000/svg" xmlns:xlink="http://www.w3.org/1999/xlink" version="1.1">
<metadata>
Created by FontForge 20170731 at Fri May 12 16:53:34 2006
 By Aleksey,,,
Copyright (c) 1987, 1991, 1993, 2002 Adobe Systems Incorporated.  All Rights Reserved.
</metadata>
<defs>
<font id="FuturaStd-BoldOblique" horiz-adv-x="686" >
  <font-face 
    font-family="Futura Std Book"
    font-weight="700"
    font-style="oblique"
    font-stretch="normal"
    units-per-em="1000"
    panose-1="2 11 8 2 2 2 4 2 2 4"
    ascent="825"
    descent="-175"
    x-height="513"
    cap-height="754"
    bbox="-171 -305 1471.99 1040"
    underline-thickness="50"
    underline-position="-200"
    slope="-9"
    unicode-range="U+0020-FB02"
  />
<missing-glyph horiz-adv-x="611" 
d="M111 0v700h500v-700h-500zM361 395l170 255h-340zM391 350l170 -255v510zM191 50h340l-170 255zM161 605v-510l170 255z" />
    <glyph glyph-name="fi" unicode="fi" horiz-adv-x="679" 
d="M311 363l-57 -363h-182l57 363h-64l24 150h64l11 65q10 64 25 102.5t55 77.5q82 82 192 82q43 0 75 -18l-25 -157q-36 17 -61 17q-34 0 -51.5 -20.5t-25.5 -65.5l-13 -83h127l-24 -150h-127zM700 513l-81 -513h-182l81 513h182zM657 812q42 0 67 -30t18 -72
q-6 -42 -41 -72t-77 -30t-67 30t-19 72q7 42 42 72t77 30z" />
    <glyph glyph-name="fl" unicode="fl" horiz-adv-x="690" 
d="M761 830l-131 -830h-182l131 830h182zM311 363l-57 -363h-182l57 363h-64l24 150h64l11 65q10 64 25 102.5t55 77.5q82 82 192 82q43 0 75 -18l-25 -157q-36 17 -61 17q-34 0 -51.5 -20.5t-25.5 -65.5l-13 -83h127l-24 -150h-127z" />
    <glyph glyph-name=".notdef" horiz-adv-x="611" 
d="M111 0v700h500v-700h-500zM361 395l170 255h-340zM391 350l170 -255v510zM191 50h340l-170 255zM161 605v-510l170 255z" />
    <glyph glyph-name=".null" horiz-adv-x="0" 
 />
    <glyph glyph-name="nonmarkingreturn" horiz-adv-x="333" 
 />
    <glyph glyph-name="space" unicode=" " horiz-adv-x="343" 
 />
    <glyph glyph-name="exclam" unicode="!" horiz-adv-x="384" 
d="M226 214q49 0 77.5 -34t20.5 -83q-8 -48 -47 -82.5t-88 -34.5t-78 34.5t-21 82.5q8 49 47.5 83t88.5 34zM139 256l78 498h189l-78 -498h-189z" />
    <glyph glyph-name="quotedbl" unicode="&#x22;" horiz-adv-x="500" 
d="M166 754h170l-79 -331h-116zM402 754h170l-79 -331h-116z" />
    <glyph glyph-name="numbersign" unicode="#" 
d="M380 726h106l-71 -203h101l71 203h105l-71 -203h80l-18 -113h-98l-44 -124h94l-18 -113h-118l-60 -173h-106l60 173h-101l-60 -173h-106l60 173h-91l18 113h113l44 124h-96l18 113h117zM376 410l-44 -124h102l46 124h-104z" />
    <glyph glyph-name="dollar" unicode="$" 
d="M82 87l106 151q32 -35 77 -59.5t90 -24.5q35 0 67.5 19.5t38.5 53.5q3 16 -3 28t-22.5 21.5t-31 15.5t-42 15t-43.5 15q-32 13 -54 26.5t-43 36t-28.5 56t-0.5 77.5q15 91 83 160t158 75l19 121h93l-19 -121q108 -10 173 -58l-97 -145q-52 49 -120 49q-36 0 -63 -14
t-31 -42q-2 -16 5 -29t24.5 -23t27 -14.5t29.5 -11.5q49 -17 78.5 -31.5t60 -39.5t41 -61.5t2.5 -86.5q-30 -192 -249 -244l-19 -125h-93l18 119q-62 0 -125 25q-75 31 -107 66z" />
    <glyph glyph-name="percent" unicode="%" horiz-adv-x="975" 
d="M346 764q88 0 139.5 -48.5t37.5 -134.5q-14 -88 -79.5 -137t-155.5 -49t-140.5 49t-36.5 137q14 86 80.5 134.5t154.5 48.5zM330 664q-35 0 -64 -25t-34 -60q-6 -35 15 -59.5t56 -24.5t64 24.5t35 59.5q5 35 -16 60t-56 25zM807 359q88 0 139.5 -48.5t37.5 -134.5
q-14 -88 -80 -137t-156 -49t-140 49t-36 137q14 86 80.5 134.5t154.5 48.5zM791 259q-35 0 -64 -25t-34 -60q-6 -35 15 -59.5t56 -24.5t64 24.5t35 59.5q5 35 -16 60t-56 25zM776 754h98l-557 -754h-98z" />
    <glyph glyph-name="ampersand" unicode="&#x26;" horiz-adv-x="848" 
d="M461 187l-99 128q-79 -45 -85 -90q-5 -32 18 -50.5t56 -18.5q51 0 110 31zM469 479q76 39 84 92q5 29 -10 49.5t-44 20.5q-27 0 -48 -17.5t-25 -44.5q-3 -17 5.5 -38t15 -30.5t22.5 -31.5zM603 0l-54 70q-146 -90 -272 -90q-102 0 -163 58t-45 158q13 79 62 127t133 83
l20 8l-13 22q-30 52 -34 83q-3 23 1 48q10 63 51 111t97.5 72t118.5 24q95 0 156.5 -56t46.5 -149q-10 -65 -53 -106.5t-116 -74.5l80 -100q72 56 116 107l94 -106l-111 -102l-11 -9l141 -178h-245z" />
    <glyph glyph-name="quotesingle" unicode="'" horiz-adv-x="250" 
d="M159 754h170l-79 -331h-116z" />
    <glyph glyph-name="parenleft" unicode="(" horiz-adv-x="352" 
d="M319 790l99 -62q-143 -183 -187 -454q-19 -102 -9 -234.5t53 -217.5l-119 -62q-39 65 -58 159.5t-18.5 185.5t14.5 181q21 131 80.5 269t144.5 235z" />
    <glyph glyph-name="parenright" unicode=")" horiz-adv-x="352" 
d="M164 728l119 62q55 -96 71 -240.5t-6 -263.5q-22 -141 -80.5 -285.5t-147.5 -240.5l-99 62q70 86 119 211t67 241q43 267 -43 454z" />
    <glyph glyph-name="asterisk" unicode="*" horiz-adv-x="483" 
d="M315 754h90l-22 -107l98 56l33 -76l-103 -50l86 -52l-57 -75l-79 57l-12 -101h-90l22 100l-93 -54l-33 76l98 50l-85 51l58 76l78 -55z" />
    <glyph glyph-name="plus" unicode="+" 
d="M321 332l28 181h150l-28 -181h181l-24 -150h-181l-29 -182h-150l29 182h-181l24 150h181z" />
    <glyph glyph-name="comma" unicode="," horiz-adv-x="343" 
d="M182 191h171l-236 -332h-117z" />
    <glyph glyph-name="hyphen" unicode="-" horiz-adv-x="392" 
d="M116 396h286l-24 -150h-286z" />
    <glyph glyph-name="period" unicode="." horiz-adv-x="343" 
d="M206 214q49 0 77.5 -34t20.5 -83q-8 -48 -47 -82.5t-88 -34.5t-78 34.5t-21 82.5q8 49 47.5 83t88.5 34z" />
    <glyph glyph-name="slash" unicode="/" horiz-adv-x="579" 
d="M540 830h143l-528 -923h-143z" />
    <glyph glyph-name="zero" unicode="0" 
d="M467 784q65 0 115.5 -23.5t80 -63.5t48 -92.5t19 -110t-6.5 -117.5q-12 -76 -42 -146.5t-77 -130t-116 -95t-150 -35.5q-65 0 -116 23.5t-80 63.5t-47.5 92.5t-18.5 110t7 117.5q12 76 42 146.5t77 130t115.5 95t149.5 35.5zM440 611q-36 0 -66 -25.5t-49 -64.5
t-30.5 -75t-16.5 -68t-5 -68.5t6.5 -76t29 -65t57.5 -25.5t65.5 25.5t49.5 65.5t30.5 76t16.5 68t5 68t-6.5 75t-29 64.5t-57.5 25.5z" />
    <glyph glyph-name="one" unicode="1" 
d="M362 588h-108l26 166h304l-119 -754h-196z" />
    <glyph glyph-name="two" unicode="2" 
d="M418 166h247l-26 -166h-606l361 335q100 93 115 185q6 38 -13.5 68t-56.5 30q-39 0 -65 -26t-32 -66q-2 -20 -2 -32h-216q26 131 117 210.5t223 79.5q122 0 195 -74t54 -194q-12 -76 -50 -130t-110 -111z" />
    <glyph glyph-name="three" unicode="3" 
d="M340 537h-182q30 114 117 182q83 65 202 65q105 0 164 -58t42 -161q-7 -48 -33.5 -90.5t-69.5 -64.5q55 -15 79 -71t14 -119q-19 -117 -115.5 -183.5t-217.5 -66.5q-141 0 -211 85q-31 37 -48 90t-8 100h200q-8 -45 17 -76t71 -31t80 28t41 73q7 42 -19.5 71.5
t-68.5 29.5q-13 0 -35 -6l21 131h20q38 0 65.5 22.5t33.5 60.5q5 34 -13.5 55t-51.5 21q-37 0 -63 -24.5t-31 -62.5z" />
    <glyph glyph-name="four" unicode="4" 
d="M612 306h91l-23 -150h-91l-25 -156h-182l25 156h-366l20 125l365 473h257zM430 306l46 290h-2l-222 -290h178z" />
    <glyph glyph-name="five" unicode="5" 
d="M656 588h-261l-26 -86l62 5q115 9 179 -71t46 -199q-20 -124 -130 -204q-88 -63 -230 -63q-140 0 -235 68l58 185q84 -87 197 -87q48 0 89 31.5t48 79.5q10 63 -34 96t-110 33q-78 0 -149 -31l130 409h392z" />
    <glyph glyph-name="six" unicode="6" 
d="M425 754h222l-254 -255l2 -2q55 23 108 23q107 0 162 -78.5t38 -186.5q-21 -133 -127 -209t-242 -76q-133 0 -204 65q-40 38 -59 93.5t-10 113.5q24 144 169 300zM358 124q51 0 91.5 36.5t48.5 88.5q8 51 -21 87t-80 36t-93.5 -36t-50.5 -87q-8 -52 23 -88.5t82 -36.5z
" />
    <glyph glyph-name="seven" unicode="7" 
d="M479 588h-315l26 166h619l-552 -754h-215z" />
    <glyph glyph-name="eight" unicode="8" 
d="M446 648q-34 0 -62.5 -25t-34.5 -60q-5 -35 15.5 -60t54.5 -25q35 0 63 25t33 60q6 35 -14 60t-55 25zM393 317q-37 0 -67.5 -27.5t-37.5 -66.5q-6 -38 16 -65t60 -27q37 0 67.5 27t36.5 65q7 39 -15 66.5t-60 27.5zM467 784q105 0 172 -56.5t51 -158.5
q-10 -60 -50.5 -107t-95.5 -64v-2q66 -23 98 -74.5t20 -123.5q-17 -108 -115.5 -168t-208.5 -60q-69 0 -129 23.5t-97 77t-26 127.5q12 72 60.5 123.5t121.5 74.5v2q-50 18 -76 65t-16 106q16 102 101 158.5t190 56.5z" />
    <glyph glyph-name="nine" unicode="9" 
d="M381 0h-223l255 254l-1 2q-57 -23 -110 -23q-107 0 -162 78.5t-38 187.5q21 133 127 209t242 76q134 0 205 -65q40 -37 58.5 -93t9.5 -115q-22 -140 -169 -300zM448 629q-51 0 -92 -36t-49 -88t21 -88t80 -36q52 0 94.5 36t50.5 88t-22.5 88t-82.5 36z" />
    <glyph glyph-name="colon" unicode=":" horiz-adv-x="343" 
d="M206 214q49 0 77.5 -34t20.5 -83q-8 -48 -47 -82.5t-88 -34.5t-78 34.5t-21 82.5q8 49 47.5 83t88.5 34zM259 551q49 0 78 -34t21 -83q-8 -48 -47.5 -82.5t-88.5 -34.5t-77.5 34.5t-20.5 82.5q8 49 47 83t88 34z" />
    <glyph glyph-name="semicolon" unicode=";" horiz-adv-x="343" 
d="M168 191h171l-236 -332h-117zM305 551q49 0 78 -34t21 -83q-8 -48 -47.5 -82.5t-88.5 -34.5t-77.5 34.5t-20.5 82.5q8 49 47 83t88 34z" />
    <glyph glyph-name="less" unicode="&#x3c;" 
d="M130 197l19 120l518 182l-24 -150l-288 -91v-2l259 -91l-24 -150z" />
    <glyph glyph-name="equal" unicode="=" 
d="M159 452h512l-24 -150h-512zM121 212h512l-24 -150h-512z" />
    <glyph glyph-name="greater" unicode="&#x3e;" 
d="M638 317l-19 -120l-518 -182l24 150l289 91v2l-260 91l24 150z" />
    <glyph glyph-name="question" unicode="?" horiz-adv-x="595" 
d="M226 252l31 194q22 -5 41 -5q48 0 92.5 26.5t52.5 72.5q5 31 -13 53t-49 22q-33 0 -55 -21t-27 -55h-199q19 110 113 175q88 60 199 60q102 0 165 -62q33 -33 49.5 -79t8.5 -94q-13 -81 -71 -135.5t-144 -80.5l-11 -71h-183zM315 214q49 0 77.5 -34t20.5 -83
q-8 -48 -47 -82.5t-88 -34.5t-78 34.5t-21 82.5q8 49 47.5 83t88.5 34z" />
    <glyph glyph-name="at" unicode="@" horiz-adv-x="740" 
d="M336 354q-6 -39 10 -65.5t51 -26.5q42 0 71 33t41 77q12 43 -4 70t-53 27q-41 0 -75 -36t-41 -79zM682 570l-91 -260q-18 -51 -12 -61q4 -6 14 -5q29 3 70 57.5t55 116.5q26 122 -40 192t-186 70q-126 0 -219.5 -85.5t-113.5 -217.5q-22 -136 50.5 -219.5t203.5 -83.5
q115 0 185 40l72 -66q-144 -68 -280 -68q-163 0 -257.5 113.5t-67.5 283.5q27 169 155.5 283t289.5 114q138 0 221 -87q96 -100 75 -234q-20 -129 -96 -213q-83 -92 -168 -88q-21 1 -36 17.5t-17 40.5q-58 -58 -137 -58q-67 0 -109 55t-29 131q15 96 83.5 168.5t158.5 72.5
q80 0 113 -62l18 53h95z" />
    <glyph glyph-name="A" unicode="A" horiz-adv-x="781" 
d="M547 131h-270l-73 -131h-208l409 754h214l165 -754h-209zM518 281l-42 240h-2l-119 -240h163z" />
    <glyph glyph-name="B" unicode="B" horiz-adv-x="677" 
d="M309 312l-25 -162h25h32.5t33 2t36.5 7t28.5 13.5t25.5 23t12 34.5t-1 35t-13.5 23.5t-23 14t-29.5 7t-32.5 2.5t-32.5 0h-16h-20zM366 0h-302l119 754h280q224 0 193 -196q-16 -111 -107 -154v-2q76 -10 106 -60t17 -132q-12 -75 -60.5 -124t-110 -67.5t-135.5 -18.5z
M356 604l-23 -146h22q106 0 117 73q3 20 -2 34t-13.5 21.5t-25 11.5t-29.5 5t-32 1h-14z" />
    <glyph glyph-name="C" unicode="C" horiz-adv-x="660" 
d="M720 736l-38 -235q-23 40 -65.5 61.5t-93.5 21.5q-89 0 -154.5 -60t-79.5 -149q-14 -90 33.5 -147.5t138.5 -57.5q48 0 96.5 21.5t85.5 58.5l-38 -235q-119 -35 -178 -35q-161 0 -266 111q-103 109 -75 285q25 161 154 276q65 57 146.5 89.5t160.5 32.5q86 0 173 -38z
" />
    <glyph glyph-name="D" unicode="D" horiz-adv-x="752" 
d="M64 0l119 754h278q158 0 253.5 -109.5t70.5 -267.5t-155 -267.5t-288 -109.5h-278zM353 588l-67 -422h44q94 0 164 53t87 158q15 99 -35 155t-147 56h-46z" />
    <glyph glyph-name="E" unicode="E" horiz-adv-x="550" 
d="M586 588h-233l-20 -126h221l-26 -166h-221l-21 -130h233l-26 -166h-429l119 754h429z" />
    <glyph glyph-name="F" unicode="F" horiz-adv-x="542" 
d="M590 588h-237l-20 -126h215l-26 -166h-215l-47 -296h-196l119 754h433z" />
    <glyph glyph-name="G" unicode="G" horiz-adv-x="842" 
d="M494 421h389q-18 -98 -43.5 -166t-81.5 -132q-129 -148 -334 -148q-178 0 -272.5 110.5t-66.5 287.5q29 183 159.5 294.5t313.5 111.5q118 0 196.5 -53t110.5 -158l-198 -78q-12 56 -49 88t-95 32q-91 0 -155 -72t-79 -166t27.5 -165t134.5 -71q66 0 114.5 34t63.5 97
h-160z" />
    <glyph glyph-name="H" unicode="H" horiz-adv-x="803" 
d="M333 463h283l46 291h196l-119 -754h-196l49 309h-283l-49 -309h-196l119 754h196z" />
    <glyph glyph-name="I" unicode="I" horiz-adv-x="324" 
d="M379 754l-119 -754h-196l119 754h196z" />
    <glyph glyph-name="J" unicode="J" horiz-adv-x="489" 
d="M352 754h196l-80 -509q-19 -123 -94.5 -194t-197.5 -71t-177 111l132 119q38 -64 69 -64q20 0 34.5 10t22.5 31.5t10.5 32.5t6.5 37z" />
    <glyph glyph-name="K" unicode="K" horiz-adv-x="758" 
d="M332 443l286 311h243l-356 -357l264 -397h-254l-201 327h-2l-52 -327h-196l119 754h196l-49 -311h2z" />
    <glyph glyph-name="L" unicode="L" horiz-adv-x="495" 
d="M379 754l-93 -588h235l-26 -166h-431l119 754h196z" />
    <glyph glyph-name="M" unicode="M" horiz-adv-x="983" 
d="M19 0l247 754h193l90 -403l225 403h195l-5 -754h-196l14 434h-2l-250 -434h-78l-104 434h-2l-132 -434h-195z" />
    <glyph glyph-name="N" unicode="N" horiz-adv-x="881" 
d="M64 0l119 754h196l286 -461h2l73 461h196l-119 -754h-196l-286 462h-2l-73 -462h-196z" />
    <glyph glyph-name="O" unicode="O" horiz-adv-x="887" 
d="M566 779q81 0 152 -29t121 -79t73 -123.5t10 -156.5q-29 -183 -165 -299.5t-318 -116.5t-281 117t-70 299q17 111 90.5 201t176 138.5t211.5 48.5zM536 589q-87 0 -159.5 -60t-84.5 -139q-16 -96 36 -160.5t141 -64.5t161 64.5t88 160.5q12 79 -41.5 139t-140.5 60z" />
    <glyph glyph-name="P" unicode="P" horiz-adv-x="661" 
d="M64 0l119 754h300q127 0 191 -61.5t44 -186.5q-40 -256 -307 -256h-111l-40 -250h-196zM354 596l-29 -188h33q28 0 42.5 0.5t37.5 5.5t35.5 14t24 27t15.5 45q4 28 -1 46.5t-14 28.5t-30 14.5t-36.5 5.5t-44.5 1h-33z" />
    <glyph glyph-name="Q" unicode="Q" horiz-adv-x="887" 
d="M618 318l45 -55q42 48 52 111q14 86 -38.5 150.5t-139.5 64.5t-160 -60t-85 -139q-16 -96 36.5 -160.5t141.5 -64.5q32 0 62 10l-102 120zM887 -19l-184 -28l-49 71q-90 -49 -215 -49q-182 0 -281 117t-70 299q17 111 90.5 201t176 138.5t211.5 48.5q179 0 280.5 -111.5
t72.5 -292.5q-22 -145 -139 -265z" />
    <glyph glyph-name="R" unicode="R" horiz-adv-x="680" 
d="M503 309l188 -309h-244l-139 290h-2l-46 -290h-196l119 754h293q118 0 181 -58t45 -174q-13 -81 -66 -140t-133 -73zM356 604l-30 -188h19q136 0 151 94q5 29 -3.5 49t-28.5 29t-40.5 12.5t-48.5 3.5h-19z" />
    <glyph glyph-name="S" unicode="S" horiz-adv-x="616" 
d="M669 712l-102 -152q-53 50 -122 50q-31 0 -60.5 -17t-33.5 -46q-2 -16 3.5 -28t20 -21t24.5 -13t27 -10l48 -15q84 -26 125.5 -73.5t27.5 -132.5q-22 -137 -110 -203q-95 -71 -225 -71q-142 0 -252 86l109 158q78 -78 162 -78q38 0 69.5 19.5t37.5 56.5q2 13 -1 24
t-14.5 20.5t-17.5 14.5t-26 12t-23 8t-23 7q-22 7 -37.5 12t-34 12t-30.5 14t-25 17t-21 20.5t-15 25t-9 31t-2 37t4 44.5q18 114 102 183.5t198 69.5q126 0 226 -62z" />
    <glyph glyph-name="T" unicode="T" horiz-adv-x="533" 
d="M457 588l-93 -588h-196l93 588h-162l26 166h520l-26 -166h-162z" />
    <glyph glyph-name="U" unicode="U" horiz-adv-x="778" 
d="M641 754h196l-67 -424q-14 -92 -38 -154.5t-83 -111.5q-99 -84 -263 -84q-165 0 -237 84q-30 34 -40.5 82t-8 85.5t11.5 98.5l67 424h196l-62 -397q-6 -36 -8 -60t0.5 -54t13 -48t34.5 -30.5t60 -12.5t64 12.5t44.5 30.5t28.5 48.5t17.5 54t11.5 59.5z" />
    <glyph glyph-name="V" unicode="V" horiz-adv-x="761" 
d="M317 754l110 -458l255 458h213l-441 -754h-152l-198 754h213z" />
    <glyph glyph-name="W" unicode="W" horiz-adv-x="1117" 
d="M308 754l54 -487h2l235 487h156l71 -487h2l219 487h204l-360 -754h-200l-63 437h-2l-217 -437h-199l-106 754h204z" />
    <glyph glyph-name="X" unicode="X" horiz-adv-x="789" 
d="M351 403l-186 351h241l85 -195l145 195h241l-296 -351l215 -403h-236l-119 246l-212 -246h-237z" />
    <glyph glyph-name="Y" unicode="Y" horiz-adv-x="714" 
d="M316 362l-216 392h235l109 -205l173 205h235l-340 -392l-57 -362h-196z" />
    <glyph glyph-name="Z" unicode="Z" horiz-adv-x="707" 
d="M367 166h316l-26 -166h-646l450 588h-296l26 166h624z" />
    <glyph glyph-name="bracketleft" unicode="[" horiz-adv-x="350" 
d="M299 684l-129 -818h107l-17 -106h-246l163 1030h246l-17 -106h-107z" />
    <glyph glyph-name="backslash" unicode="\" horiz-adv-x="579" 
d="M158 830h144l250 -830h-142z" />
    <glyph glyph-name="bracketright" unicode="]" horiz-adv-x="350" 
d="M138 -134l129 818h-107l17 106h246l-163 -1030h-246l17 106h107z" />
    <glyph glyph-name="asciicircum" unicode="^" 
d="M271 340l-104 67l240 377h120l120 -377l-124 -67l-84 269z" />
    <glyph glyph-name="underscore" unicode="_" horiz-adv-x="500" 
d="M480 -125h-500l8 50h500z" />
    <glyph glyph-name="grave" unicode="`" horiz-adv-x="402" 
d="M192 740l124 80l114 -172l-91 -59z" />
    <glyph glyph-name="a" unicode="a" horiz-adv-x="682" 
d="M387 372q-54 0 -90.5 -33.5t-44.5 -82.5q-8 -50 18 -82.5t80 -32.5t91 32.5t45 82.5q8 49 -18.5 82.5t-80.5 33.5zM702 513l-81 -513h-182l9 57h-2q-29 -36 -74 -55t-93 -19q-112 0 -172.5 80.5t-42.5 193.5t103 193t197 80q102 0 148 -67l8 50h182z" />
    <glyph glyph-name="b" unicode="b" horiz-adv-x="682" 
d="M54 0l131 830h182l-58 -367q68 67 170 67q112 0 172 -80t42 -193q-18 -114 -104.5 -194t-198.5 -80q-48 0 -86.5 18.5t-56.5 55.5h-2l-9 -57h-182zM406 372q-54 0 -90.5 -33.5t-44.5 -82.5q-8 -50 18 -82.5t80 -32.5t91 32.5t45 82.5q8 49 -18.5 82.5t-80.5 33.5z" />
    <glyph glyph-name="c" unicode="c" horiz-adv-x="483" 
d="M509 500l-24 -154q-43 36 -88 36q-53 0 -95 -36t-50 -89q-9 -55 21.5 -90.5t86.5 -35.5q53 0 96 35l-24 -154q-62 -29 -133 -29q-116 0 -185 76.5t-51 191.5q19 122 114 200.5t217 78.5q66 0 115 -30z" />
    <glyph glyph-name="d" unicode="d" horiz-adv-x="682" 
d="M446 0l9 57h-2q-29 -36 -74 -55t-93 -19q-112 0 -172.5 80.5t-42.5 193.5t103 193t197 80q102 0 148 -67l58 367h182l-131 -830h-182zM394 372q-54 0 -90.5 -33.5t-44.5 -82.5q-8 -50 18 -82.5t80 -32.5t91 32.5t45 82.5q8 49 -18.5 82.5t-80.5 33.5z" />
    <glyph glyph-name="e" unicode="e" horiz-adv-x="610" 
d="M259 331h211q-1 36 -26.5 58.5t-63.5 22.5q-41 0 -73.5 -21t-47.5 -60zM626 245l-3 -19h-383q-18 -114 96 -114q59 0 94 47h175q-33 -85 -118 -133q-76 -43 -171 -43q-132 0 -202.5 72t-50.5 201q20 127 110 200.5t217 73.5q133 0 195 -76.5t41 -208.5z" />
    <glyph glyph-name="f" unicode="f" horiz-adv-x="388" 
d="M317 363l-57 -363h-182l57 363h-64l24 150h64l11 65q10 64 25 102.5t55 77.5q82 82 192 82q43 0 75 -18l-25 -157q-36 17 -61 17q-34 0 -51.5 -20.5t-25.5 -65.5l-13 -83h127l-24 -150h-127z" />
    <glyph glyph-name="g" unicode="g" horiz-adv-x="677" 
d="M704 513l-73 -463q-26 -159 -113 -232.5t-233 -73.5q-101 0 -182.5 51.5t-78.5 144.5h204q4 -25 28 -39q22 -12 50 -12q68 0 99 38t42 109l4 24q-82 -70 -175 -70q-111 0 -170 75t-41 187q18 115 105 196.5t202 81.5q101 0 140 -71h2l8 54h182zM390 376q-54 0 -91 -33.5
t-45 -82.5q-8 -50 18.5 -82.5t80.5 -32.5t90.5 32.5t44.5 82.5q8 49 -18 82.5t-80 33.5z" />
    <glyph glyph-name="h" unicode="h" horiz-adv-x="661" 
d="M191 830h182l-60 -382h2q75 82 177 82q95 0 134.5 -57.5t24.5 -158.5l-50 -314h-182l42 263q3 31 3.5 58t-16 45.5t-50.5 18.5q-50 0 -78 -35.5t-36 -86.5l-42 -263h-182z" />
    <glyph glyph-name="i" unicode="i" horiz-adv-x="302" 
d="M323 513l-81 -513h-182l81 513h182zM280 812q42 0 67 -30t18 -72q-6 -42 -41 -72t-77 -30t-67 30t-19 72q7 42 42 72t77 30z" />
    <glyph glyph-name="j" unicode="j" horiz-adv-x="302" 
d="M323 513l-122 -769h-182l122 769h182zM280 812q42 0 67 -30t18 -72q-6 -42 -41 -72t-77 -30t-67 30t-19 72q7 42 42 72t77 30z" />
    <glyph glyph-name="k" unicode="k" horiz-adv-x="688" 
d="M373 830l-79 -502l218 185h249l-294 -237l229 -276h-255l-166 209l-33 -209h-182l131 830h182z" />
    <glyph glyph-name="l" unicode="l" horiz-adv-x="302" 
d="M373 830l-131 -830h-182l131 830h182z" />
    <glyph glyph-name="m" unicode="m" horiz-adv-x="989" 
d="M323 513l-10 -64h2q74 81 175 81q122 0 159 -98q34 47 85 72.5t105 25.5q174 0 143 -203l-52 -327h-182l39 245q12 82 -1 110q-13 30 -52 30q-30 0 -51 -12.5t-32 -36t-16.5 -43t-9.5 -48.5l-39 -245h-182l39 245q3 20 4.5 31t2.5 31t-2.5 32t-9.5 25t-20 19t-33 6
q-23 0 -41 -10.5t-28 -23t-18 -36t-10.5 -37t-6.5 -37.5l-39 -245h-182l81 513h182z" />
    <glyph glyph-name="n" unicode="n" horiz-adv-x="661" 
d="M323 513l-10 -66h2q38 45 80 64t97 19q99 0 137 -56.5t22 -156.5l-50 -317h-182l40 250q0 3 2.5 17t3 20t1.5 19.5t0 20.5t-3 17.5t-7.5 16.5t-12.5 12.5t-18.5 9t-26.5 2.5q-95 0 -114 -119l-42 -266h-182l81 513h182z" />
    <glyph glyph-name="o" unicode="o" horiz-adv-x="662" 
d="M415 530q130 0 208 -74t58 -200q-14 -84 -67 -147t-127.5 -94.5t-158.5 -31.5q-129 0 -207 73.5t-58 199.5q19 126 120.5 200t231.5 74zM390 372q-54 0 -90.5 -33.5t-44.5 -82.5q-8 -50 18 -82.5t80 -32.5t91 32.5t45 82.5q8 49 -18.5 82.5t-80.5 33.5z" />
    <glyph glyph-name="p" unicode="p" horiz-adv-x="682" 
d="M317 513l-9 -58h2q30 37 75 56t92 19q112 0 172.5 -81t42.5 -194t-103 -192.5t-197 -79.5q-101 0 -148 66l-49 -305h-182l122 769h182zM406 372q-54 0 -90.5 -33.5t-44.5 -82.5q-8 -50 18 -82.5t80 -32.5t91 32.5t45 82.5q8 49 -18.5 82.5t-80.5 33.5z" />
    <glyph glyph-name="q" unicode="q" horiz-adv-x="682" 
d="M709 513l-122 -769h-182l49 305q-66 -66 -170 -66q-112 0 -172 79t-42 193q18 112 105 193.5t198 81.5q48 0 87 -19t56 -56h2l9 58h182zM394 372q-54 0 -90.5 -33.5t-44.5 -82.5q-8 -50 18 -82.5t80 -32.5t91 32.5t45 82.5q8 49 -18.5 82.5t-80.5 33.5z" />
    <glyph glyph-name="r" unicode="r" horiz-adv-x="453" 
d="M323 513l-13 -84h2q65 91 180 91h35l-27 -175q-28 17 -75 17q-71 0 -104.5 -40.5t-45.5 -114.5l-33 -207h-182l81 513h182z" />
    <glyph glyph-name="s" unicode="s" horiz-adv-x="513" 
d="M539 497l-80 -116q-42 25 -94 25q-20 0 -39.5 -8.5t-22.5 -26.5q-1 -7 1 -13t7.5 -10.5t10.5 -7.5t14 -5.5t14.5 -3.5t15 -2.5t12.5 -2.5q144 -30 125 -152q-15 -94 -94.5 -142.5t-178.5 -48.5q-110 0 -197 59l86 127q26 -21 65 -36.5t71 -15.5q21 0 40.5 10t22.5 29
q2 11 -2.5 19.5t-17 14t-23 8.5t-31 7.5t-31.5 7.5q-50 14 -76.5 43.5t-16.5 91.5q10 60 50.5 102.5t93 61t111.5 18.5q97 0 164 -33z" />
    <glyph glyph-name="t" unicode="t" horiz-adv-x="360" 
d="M316 363l-57 -363h-182l57 363h-59l24 150h59l25 154h182l-25 -154h103l-24 -150h-103z" />
    <glyph glyph-name="u" unicode="u" horiz-adv-x="659" 
d="M138 513h182l-43 -274q-8 -55 6.5 -83t66.5 -28q53 0 77 28.5t32 82.5l43 274h182l-49 -309q-34 -221 -308 -221q-126 0 -191 51t-47 170z" />
    <glyph glyph-name="v" unicode="v" horiz-adv-x="623" 
d="M270 513l82 -263l163 263h204l-349 -513h-116l-188 513h204z" />
    <glyph glyph-name="w" unicode="w" horiz-adv-x="996" 
d="M268 513l84 -278l173 278h108l85 -278l173 278h201l-349 -513h-118l-82 281l-172 -281h-118l-187 513h202z" />
    <glyph glyph-name="x" unicode="x" horiz-adv-x="712" 
d="M285 278l-171 235h231l75 -106l109 106h235l-249 -235l212 -278h-239l-108 152l-156 -152h-239z" />
    <glyph glyph-name="y" unicode="y" horiz-adv-x="654" 
d="M244 70l-178 443h210l96 -263l175 263h207l-533 -769h-204z" />
    <glyph glyph-name="z" unicode="z" horiz-adv-x="559" 
d="M336 151h216l-24 -151h-520l298 362h-209l24 151h512z" />
    <glyph glyph-name="braceleft" unicode="{" horiz-adv-x="352" 
d="M72 227l16 104q46 0 63 18q12 14 16 35l40 253q11 72 56.5 112.5t80.5 40.5h97l-19 -120h-25q-16 0 -27 -4.5t-16.5 -15t-7.5 -18t-4 -21.5l-36 -225q-14 -91 -113 -106v-2q8 -1 11 -1.5t12.5 -2.5t13.5 -4.5t13 -7t12 -10.5t9.5 -14.5t6.5 -19.5t2.5 -25.5t-2.5 -31.5
l-36 -222q-7 -22 -0.5 -40.5t37.5 -18.5h25l-19 -120h-97q-35 0 -67.5 40.5t-21.5 110.5l40 253q3 11 1.5 19t-1.5 14.5t-4.5 11t-6 8t-7.5 5.5l-9 3t-9.5 1.5t-8.5 0.5h-8h-7z" />
    <glyph glyph-name="bar" unicode="|" horiz-adv-x="497" 
d="M242 915h137v-1220h-137v1220z" />
    <glyph glyph-name="braceright" unicode="}" horiz-adv-x="352" 
d="M368 331l-16 -104h-7.5h-9.5t-10 -0.5t-11 -2.5t-10.5 -5t-10.5 -7.5t-8.5 -11t-7.5 -16t-5 -20.5l-40 -253q-11 -70 -56.5 -110.5t-80.5 -40.5h-97l19 120h25q16 0 27 4.5t16.5 14.5t7.5 18t4 22l36 222q5 30 15.5 52.5t21.5 33.5t28 18.5t25.5 9t23.5 3.5v2
q-93 15 -79 106l36 225q7 21 0 40t-37 19h-25l19 120h97q35 0 67.5 -40.5t21.5 -112.5l-40 -253q-3 -19 1.5 -31t16.5 -16t19.5 -5t19.5 -1h4z" />
    <glyph glyph-name="asciitilde" unicode="~" 
d="M582 373l99 -97q-26 -34 -40.5 -51.5t-43.5 -47t-58 -43.5t-58 -14q-12 0 -24 2.5t-20.5 5t-20.5 9t-17 9.5t-17.5 11.5t-15.5 10.5q-11 7 -35.5 25t-39 25.5t-28.5 7.5q-27 0 -79 -84l-97 96q9 9 39.5 44.5t50 55t51 38.5t60.5 19q53 0 119 -56q56 -50 100 -50
q31 0 75 84z" />
    <glyph glyph-name="uni00A0" unicode="&#xa0;" horiz-adv-x="343" 
 />
    <glyph glyph-name="exclamdown" unicode="&#xa1;" horiz-adv-x="384" 
d="M276 532q49 0 77.5 -34t21.5 -83q-8 -48 -47.5 -82.5t-88.5 -34.5t-77.5 34.5t-20.5 82.5q7 49 46.5 83t88.5 34zM138 255h189l-78 -498h-189z" />
    <glyph glyph-name="cent" unicode="&#xa2;" 
d="M396 10l15 99q-104 4 -165.5 83.5t-44.5 184.5q17 112 100 187t196 86l15 93h93l-16 -99l55 -17l-26 -163q-33 38 -81 38q-54 0 -95.5 -34.5t-50.5 -87.5q-8 -51 21 -87t80 -36q61 0 100 38l-26 -163q-40 -14 -61 -16l-16 -106h-93z" />
    <glyph glyph-name="sterling" unicode="&#xa3;" 
d="M526 300h-142q5 -26 -1.5 -67.5t-20.5 -66.5l11 -4q87 -34 142 -34q23 0 39 13t20 36h122q-21 -89 -73 -138q-57 -55 -142 -55q-14 0 -27.5 1.5t-28.5 5t-24 6t-27.5 8t-25.5 7.5q-85 25 -123 25q-54 0 -69 -37h-130q24 70 79 123t121 54q35 55 2 123h-161l12 76h108
q-27 56 -16 128q17 113 111 191q87 73 223 73q147 0 201 -67.5t32 -216.5h-194l5 35q6 38 -16 66.5t-60 28.5q-44 0 -74.5 -30.5t-37.5 -75.5q-10 -72 21 -132h156z" />
    <glyph glyph-name="currency" unicode="&#xa4;" 
d="M73 152l77 66q-40 66 -25 160q17 104 76 165l-55 67l72 63l56 -67q76 52 176 52q98 0 152 -52l78 67l52 -62l-72 -63q42 -73 27 -168q-16 -99 -81 -161l55 -66l-70 -65l-57 66q-71 -54 -172 -54q-103 0 -160 55l-77 -66zM426 508q-56 0 -99.5 -38.5t-52.5 -94.5t23 -90.5
t89 -34.5q56 0 98.5 34.5t51.5 90.5t-22.5 94.5t-87.5 38.5z" />
    <glyph glyph-name="yen" unicode="&#xa5;" 
d="M704 446h-142l-70 -84h198l-12 -76h-198l-45 -286h-184l45 286h-200l12 76h199l-43 84h-142l12 76h92l-118 232h222l100 -205l164 205h222l-191 -232h91z" />
    <glyph glyph-name="brokenbar" unicode="&#xa6;" horiz-adv-x="497" 
d="M242 824h137v-427h-137v427zM242 213h137v-426h-137v426z" />
    <glyph glyph-name="section" unicode="&#xa7;" 
d="M328 270l154 -83q29 20 34 54q2 14 -2 26t-15.5 21.5t-20 14.5t-23.5 13l-151 83q-34 -18 -39 -54q-2 -14 1 -24.5t15 -20.5t17 -13t23 -13q2 -1 3.5 -2t3.5 -2zM656 589h-157q-2 27 -18 43.5t-43 16.5q-23 0 -41.5 -14t-22.5 -37q-2 -12 1 -23t7.5 -17.5t15.5 -15
t16.5 -12t20.5 -11t18 -9.5l102 -56q35 -19 54 -32t39 -34.5t25.5 -49.5t-0.5 -66q-14 -90 -109 -157q44 -45 31 -130q-11 -69 -57.5 -119.5t-108 -73t-129.5 -22.5q-73 0 -131.5 24.5t-91.5 79t-18 129.5h183q-7 -38 19.5 -64.5t64.5 -26.5q32 0 57 18t30 49q1 10 0 18.5
t-6 16t-8.5 12t-13.5 11t-13 8.5t-16 8.5t-14 7.5l-146 77q-108 58 -91 165q14 92 112 163q-38 43 -27 117q14 90 90 140.5t169 50.5q63 0 110.5 -18t75.5 -60.5t21 -106.5z" />
    <glyph glyph-name="dieresis" unicode="&#xa8;" horiz-adv-x="604" 
d="M301 800q41 0 65 -29t17 -69q-7 -41 -39.5 -69.5t-73.5 -28.5t-66 28.5t-18 69.5t40.5 69.5t74.5 28.5zM557 800q41 0 65 -29t17 -69q-7 -41 -39.5 -69.5t-73.5 -28.5t-66 28.5t-18 69.5t40.5 69.5t74.5 28.5z" />
    <glyph glyph-name="copyright" unicode="&#xa9;" horiz-adv-x="800" 
d="M397 -20q-165 0 -262 115.5t-71 280.5q26 166 159.5 282t299.5 116q165 0 262 -116t71 -282q-26 -164 -160 -280t-299 -116zM412 74q129 0 229 85.5t121 216.5q21 132 -52 218t-202 86q-130 0 -229.5 -85.5t-120.5 -218.5q-21 -131 51.5 -216.5t202.5 -85.5zM675 459h-90
q-1 35 -25 54t-62 19q-57 0 -97 -44t-49 -106q-10 -60 18 -106.5t83 -46.5q37 0 68.5 21t38.5 56h90q-19 -70 -78.5 -112t-130.5 -42q-98 0 -148.5 65.5t-35.5 162.5q16 101 85 165t169 64q72 0 117.5 -40.5t46.5 -109.5z" />
    <glyph glyph-name="ordfeminine" unicode="&#xaa;" horiz-adv-x="409" 
d="M295 540q31 0 56.5 20.5t30.5 49.5q4 29 -14.5 49.5t-50.5 20.5t-57.5 -20.5t-29.5 -49.5q-5 -29 14 -49.5t51 -20.5zM353 456l6 34h-2q-37 -44 -107 -44q-73 0 -113 48t-29 116t65.5 116t127.5 48q66 0 96 -40l5 30h118l-49 -308h-118z" />
    <glyph glyph-name="guillemotleft" unicode="&#xab;" horiz-adv-x="603" 
d="M472 320l101 -174l-114 -72l-133 246l211 246l89 -69zM223 320l101 -174l-114 -72l-133 246l211 246l89 -69z" />
    <glyph glyph-name="logicalnot" unicode="&#xac;" 
d="M471 141l26 161h-362l24 150h512l-50 -311h-150z" />
    <glyph glyph-name="uni00AD" unicode="&#xad;" horiz-adv-x="392" 
d="M116 396h286l-24 -150h-286z" />
    <glyph glyph-name="registered" unicode="&#xae;" horiz-adv-x="800" 
d="M397 -20q-165 0 -262 115.5t-71 280.5q26 166 159.5 282t299.5 116q165 0 262 -116t71 -282q-26 -164 -160 -280t-299 -116zM412 74q129 0 229 85.5t121 216.5q21 132 -52 218t-202 86q-130 0 -229.5 -85.5t-120.5 -218.5q-21 -131 51.5 -216.5t202.5 -85.5zM545 349
l73 -174h-100l-65 174h-64l-27 -174h-92l65 412h200q81 0 116.5 -25t23.5 -101q-9 -56 -41 -82t-89 -30zM399 411h110q38 0 57 12.5t25 49.5q2 15 -4 24t-22 12.5t-27.5 4.5t-32.5 1h-89z" />
    <glyph glyph-name="macron" unicode="&#xaf;" horiz-adv-x="603" 
d="M194 752h452l-17 -107h-452z" />
    <glyph glyph-name="degree" unicode="&#xb0;" horiz-adv-x="400" 
d="M449 623q-10 -61 -61.5 -105t-113.5 -44q-63 0 -99 43.5t-26 105.5q8 62 59 106.5t114 44.5q62 0 99.5 -44.5t27.5 -106.5zM364 624q4 27 -12.5 46t-43.5 19q-26 0 -48.5 -19.5t-25.5 -45.5q-4 -27 12 -46t43 -19t48.5 19t26.5 46z" />
    <glyph glyph-name="plusminus" unicode="&#xb1;" 
d="M349 512l23 142h150l-23 -142h181l-24 -150h-181l-22 -142h-150l22 142h-181l24 150h181zM111 150h512l-24 -150h-512z" />
    <glyph glyph-name="twosuperior" unicode="&#xb2;" horiz-adv-x="412" 
d="M389 479l-87 -66h160l-15 -99h-394l233 201q64 56 73 111q4 22 -9.5 40t-37.5 18q-25 0 -41.5 -15.5t-20.5 -39.5q-1 -6 -1 -19h-140q15 79 73.5 126.5t144.5 47.5q80 0 127.5 -44.5t36.5 -116.5q-8 -46 -32 -78t-70 -66z" />
    <glyph glyph-name="threesuperior" unicode="&#xb3;" horiz-adv-x="412" 
d="M77 461h130q-5 -27 11.5 -45t46.5 -18t52 16.5t26 43.5q4 25 -13.5 42.5t-44.5 17.5q-4 0 -7.5 -0.5t-8 -1.5t-7.5 -1l12 78h13q25 0 42.5 13.5t21.5 36.5q3 20 -9 32.5t-34 12.5q-24 0 -40.5 -15t-19.5 -37h-118q19 70 73.5 109t131.5 39q68 0 107 -35t29 -96
q-9 -65 -66 -93q35 -8 51.5 -42t10.5 -72q-11 -70 -73.5 -109.5t-140.5 -39.5q-93 0 -138 51q-21 21 -32.5 53t-5.5 60z" />
    <glyph glyph-name="acute" unicode="&#xb4;" horiz-adv-x="402" 
d="M444 740l-195 -151l-71 59l168 172z" />
    <glyph glyph-name="mu" unicode="&#xb5;" horiz-adv-x="659" 
d="M138 513h182l-43 -274q-8 -55 6.5 -83t66.5 -28q53 0 77 28.5t32 82.5l43 274h182l-49 -309q-10 -62 -39.5 -107.5t-70 -69t-80 -34t-78.5 -10.5q-78 0 -123 49l-46 -288h-182z" />
    <glyph glyph-name="paragraph" unicode="&#xb6;" 
d="M382 754h377l-14 -91h-66l-132 -833h-101l132 832h-93l-132 -832h-101l73 460q-46 4 -80.5 16.5t-63 36.5t-42.5 65t-11 97q5 91 85.5 170t168.5 79z" />
    <glyph glyph-name="periodcentered" unicode="&#xb7;" horiz-adv-x="343" 
d="M231 373q49 0 78 -34t21 -83q-8 -48 -48 -82.5t-88 -34.5q-49 0 -77.5 34.5t-20.5 82.5q8 49 47 83t88 34z" />
    <glyph glyph-name="cedilla" unicode="&#xb8;" horiz-adv-x="380" 
d="M289 -94l-174 -143l-70 49l155 158z" />
    <glyph glyph-name="onesuperior" unicode="&#xb9;" horiz-adv-x="412" 
d="M269 667h-70l15 99h197l-71 -452h-127z" />
    <glyph glyph-name="ordmasculine" unicode="&#xba;" horiz-adv-x="410" 
d="M328 774q84 0 135.5 -44t39.5 -120t-77.5 -120t-149.5 -44t-135 44t-39 120t77 120t149 44zM313 679q-31 0 -56 -20t-30 -49t13.5 -49t50.5 -20t57 20t30 49t-14.5 49t-50.5 20z" />
    <glyph glyph-name="guillemotright" unicode="&#xbb;" horiz-adv-x="603" 
d="M76 146l157 174l-98 177l111 69l133 -246l-211 -246zM325 146l157 174l-98 177l111 69l133 -246l-211 -246z" />
    <glyph glyph-name="onequarter" unicode="&#xbc;" horiz-adv-x="1029" 
d="M781 183l28 174h-2l-142 -174h116zM764 754h98l-557 -754h-98zM274 655h-70l15 99h197l-71 -452h-127zM899 184h59l-14 -90h-59l-15 -94h-118l15 94h-238l12 75l234 283h167z" />
    <glyph glyph-name="onehalf" unicode="&#xbd;" horiz-adv-x="1029" 
d="M274 655h-70l15 99h197l-71 -452h-127zM871 165l-86 -66h160l-16 -99h-394l233 201q65 57 73 111q4 22 -9 40t-37 18q-25 0 -42 -15.5t-21 -39.5q-1 -6 -1 -19h-140q15 80 74 126q57 48 144 48q80 0 128 -44.5t36 -116.5q-7 -46 -31 -78t-71 -66zM736 754h98l-557 -754
h-98z" />
    <glyph glyph-name="threequarters" unicode="&#xbe;" horiz-adv-x="1029" 
d="M831 183l28 174h-2l-142 -174h116zM850 754h98l-557 -754h-98zM949 184h59l-14 -90h-59l-15 -94h-118l15 94h-238l12 75l234 283h167zM315 563h13q25 0 42.5 13.5t21.5 36.5q3 20 -9 32.5t-34 12.5q-23 0 -39.5 -15t-20.5 -37h-118q18 70 74 109q54 39 131 39
q68 0 107 -35t30 -96q-11 -66 -67 -93q35 -8 51.5 -42t10.5 -72q-11 -70 -73.5 -109.5t-140.5 -39.5q-91 0 -138 51q-20 22 -32 53.5t-6 59.5h130q-4 -27 12 -45t46 -18t52 16.5t26 43.5q4 25 -13.5 42.5t-44.5 17.5q-4 0 -7.5 -0.5t-8 -1.5t-7.5 -1z" />
    <glyph glyph-name="questiondown" unicode="&#xbf;" horiz-adv-x="595" 
d="M450 258l-31 -194q-22 5 -41 5q-48 0 -92.5 -26.5t-52.5 -72.5q-5 -31 12.5 -53t48.5 -22q34 0 55.5 21.5t26.5 54.5h199q-18 -109 -108.5 -172t-202.5 -63q-103 0 -165 62q-33 33 -49.5 79t-9.5 94q13 81 71.5 135.5t144.5 80.5l11 71h183zM398 532q49 0 78 -34t21 -83
q-8 -48 -47.5 -82.5t-88.5 -34.5t-77.5 34.5t-20.5 82.5q7 49 46.5 83t88.5 34z" />
    <glyph glyph-name="Agrave" unicode="&#xc0;" horiz-adv-x="781" 
d="M547 131h-270l-73 -131h-208l409 754h214l165 -754h-209zM518 281l-42 240h-2l-119 -240h163zM396 951l123 80l114 -172l-90 -59z" />
    <glyph glyph-name="Aacute" unicode="&#xc1;" horiz-adv-x="781" 
d="M547 131h-270l-73 -131h-208l409 754h214l165 -754h-209zM518 281l-42 240h-2l-119 -240h163zM688 951l-195 -151l-72 59l168 172z" />
    <glyph glyph-name="Acircumflex" unicode="&#xc2;" horiz-adv-x="781" 
d="M547 131h-270l-73 -131h-208l409 754h214l165 -754h-209zM518 281l-42 240h-2l-119 -240h163zM310 876l244 164l195 -164l-91 -84l-126 111l-162 -111z" />
    <glyph glyph-name="Atilde" unicode="&#xc3;" horiz-adv-x="781" 
d="M547 131h-270l-73 -131h-208l409 754h214l165 -754h-209zM518 281l-42 240h-2l-119 -240h163zM405 827h-82l1 11q8 51 36 89q42 56 98 56q27 0 82.5 -17t74.5 -17q17 0 26.5 8.5t19.5 27.5h85q-15 -62 -55.5 -110t-99.5 -48q-26 0 -74.5 18.5t-71.5 18.5
q-11 0 -19.5 -6.5t-11 -11.5z" />
    <glyph glyph-name="Adieresis" unicode="&#xc4;" horiz-adv-x="781" 
d="M547 131h-270l-73 -131h-208l409 754h214l165 -754h-209zM518 281l-42 240h-2l-119 -240h163zM423 1011q40 0 64.5 -28.5t18.5 -69.5q-7 -41 -40 -69.5t-74 -28.5t-65.5 28.5t-17.5 69.5q6 41 39.5 69.5t74.5 28.5zM679 1011q40 0 64.5 -28.5t18.5 -69.5
q-7 -41 -40 -69.5t-74 -28.5t-65.5 28.5t-17.5 69.5q6 41 39.5 69.5t74.5 28.5z" />
    <glyph glyph-name="Aring" unicode="&#xc5;" horiz-adv-x="781" 
d="M547 131h-270l-73 -131h-208l409 754h214l165 -754h-209zM518 281l-42 240h-2l-119 -240h163zM549 1011q65 0 106 -27.5t31 -87.5q-10 -59 -58.5 -87t-111.5 -28q-41 0 -72.5 10t-51.5 36.5t-13 67.5q9 60 57.5 88t112.5 28zM540 939q-59 0 -66 -43q-3 -22 12.5 -32.5
t39.5 -10.5t43 10.5t22 32.5t-12.5 32.5t-38.5 10.5z" />
    <glyph glyph-name="AE" unicode="&#xc6;" horiz-adv-x="1026" 
d="M515 281l-46 224l-120 -224h166zM572 0l-28 131h-273l-68 -131h-207l410 754h462l35 -166h-248l26 -126h247l37 -166h-249l28 -130h248l34 -166h-454z" />
    <glyph glyph-name="Ccedilla" unicode="&#xc7;" horiz-adv-x="660" 
d="M720 736l-38 -235q-23 40 -65.5 61.5t-93.5 21.5q-89 0 -154.5 -60t-79.5 -149q-14 -90 33.5 -147.5t138.5 -57.5q48 0 96.5 21.5t85.5 58.5l-38 -235q-119 -35 -178 -35q-161 0 -266 111q-103 109 -75 285q25 161 154 276q65 57 146.5 89.5t160.5 32.5q86 0 173 -38z
M454 -94l-174 -143l-70 49l155 158z" />
    <glyph glyph-name="Egrave" unicode="&#xc8;" horiz-adv-x="550" 
d="M586 588h-233l-20 -126h221l-26 -166h-221l-21 -130h233l-26 -166h-429l119 754h429zM300 951l123 80l114 -172l-90 -59z" />
    <glyph glyph-name="Eacute" unicode="&#xc9;" horiz-adv-x="550" 
d="M586 588h-233l-20 -126h221l-26 -166h-221l-21 -130h233l-26 -166h-429l119 754h429zM552 951l-195 -151l-72 59l168 172z" />
    <glyph glyph-name="Ecircumflex" unicode="&#xca;" horiz-adv-x="550" 
d="M586 588h-233l-20 -126h221l-26 -166h-221l-21 -130h233l-26 -166h-429l119 754h429zM194 876l244 164l195 -164l-91 -84l-126 111l-162 -111z" />
    <glyph glyph-name="Edieresis" unicode="&#xcb;" horiz-adv-x="550" 
d="M586 588h-233l-20 -126h221l-26 -166h-221l-21 -130h233l-26 -166h-429l119 754h429zM307 1011q40 0 64.5 -28.5t18.5 -69.5q-7 -41 -40 -69.5t-74 -28.5t-65.5 28.5t-17.5 69.5q6 41 39.5 69.5t74.5 28.5zM563 1011q40 0 64.5 -28.5t18.5 -69.5q-7 -41 -40 -69.5
t-74 -28.5t-65.5 28.5t-17.5 69.5q6 41 39.5 69.5t74.5 28.5z" />
    <glyph glyph-name="Igrave" unicode="&#xcc;" horiz-adv-x="324" 
d="M379 754l-119 -754h-196l119 754h196zM172 951l123 80l114 -172l-90 -59z" />
    <glyph glyph-name="Iacute" unicode="&#xcd;" horiz-adv-x="324" 
d="M379 754l-119 -754h-196l119 754h196zM454 951l-195 -151l-72 59l168 172z" />
    <glyph glyph-name="Icircumflex" unicode="&#xce;" horiz-adv-x="324" 
d="M379 754l-119 -754h-196l119 754h196zM96 876l244 164l195 -164l-91 -84l-126 111l-162 -111z" />
    <glyph glyph-name="Idieresis" unicode="&#xcf;" horiz-adv-x="324" 
d="M379 754l-119 -754h-196l119 754h196zM194 1011q40 0 64.5 -28.5t18.5 -69.5q-7 -41 -40 -69.5t-74 -28.5t-65.5 28.5t-17.5 69.5q6 41 39.5 69.5t74.5 28.5zM450 1011q40 0 64.5 -28.5t18.5 -69.5q-7 -41 -40 -69.5t-74 -28.5t-65.5 28.5t-17.5 69.5q6 41 39.5 69.5
t74.5 28.5z" />
    <glyph glyph-name="Eth" unicode="&#xd0;" horiz-adv-x="752" 
d="M353 588l-20 -125h110l-24 -154h-110l-23 -143h44q94 0 164 53t87 158q15 99 -35 155t-147 56h-46zM64 0l49 309h-84l24 154h84l46 291h254q178 0 276 -106t72 -271q-26 -164 -159 -270.5t-306 -106.5h-256z" />
    <glyph glyph-name="Ntilde" unicode="&#xd1;" horiz-adv-x="881" 
d="M64 0l119 754h196l286 -461h2l73 461h196l-119 -754h-196l-286 462h-2l-73 -462h-196zM455 827h-82l1 11q8 51 36 89q42 56 98 56q27 0 82.5 -17t74.5 -17q17 0 26.5 8.5t19.5 27.5h85q-15 -62 -55.5 -110t-99.5 -48q-26 0 -74.5 18.5t-71.5 18.5q-11 0 -19.5 -6.5
t-11 -11.5z" />
    <glyph glyph-name="Ograve" unicode="&#xd2;" horiz-adv-x="887" 
d="M566 779q81 0 152 -29t121 -79t73 -123.5t10 -156.5q-29 -183 -165 -299.5t-318 -116.5t-281 117t-70 299q17 111 90.5 201t176 138.5t211.5 48.5zM536 589q-87 0 -159.5 -60t-84.5 -139q-16 -96 36 -160.5t141 -64.5t161 64.5t88 160.5q12 79 -41.5 139t-140.5 60z
M449 951l123 80l114 -172l-90 -59z" />
    <glyph glyph-name="Oacute" unicode="&#xd3;" horiz-adv-x="887" 
d="M566 779q81 0 152 -29t121 -79t73 -123.5t10 -156.5q-29 -183 -165 -299.5t-318 -116.5t-281 117t-70 299q17 111 90.5 201t176 138.5t211.5 48.5zM536 589q-87 0 -159.5 -60t-84.5 -139q-16 -96 36 -160.5t141 -64.5t161 64.5t88 160.5q12 79 -41.5 139t-140.5 60z
M741 951l-195 -151l-72 59l168 172z" />
    <glyph glyph-name="Ocircumflex" unicode="&#xd4;" horiz-adv-x="887" 
d="M566 779q81 0 152 -29t121 -79t73 -123.5t10 -156.5q-29 -183 -165 -299.5t-318 -116.5t-281 117t-70 299q17 111 90.5 201t176 138.5t211.5 48.5zM536 589q-87 0 -159.5 -60t-84.5 -139q-16 -96 36 -160.5t141 -64.5t161 64.5t88 160.5q12 79 -41.5 139t-140.5 60z
M363 876l244 164l195 -164l-91 -84l-126 111l-162 -111z" />
    <glyph glyph-name="Otilde" unicode="&#xd5;" horiz-adv-x="887" 
d="M566 779q81 0 152 -29t121 -79t73 -123.5t10 -156.5q-29 -183 -165 -299.5t-318 -116.5t-281 117t-70 299q17 111 90.5 201t176 138.5t211.5 48.5zM536 589q-87 0 -159.5 -60t-84.5 -139q-16 -96 36 -160.5t141 -64.5t161 64.5t88 160.5q12 79 -41.5 139t-140.5 60z
M458 827h-82l1 11q8 51 36 89q42 56 98 56q27 0 82.5 -17t74.5 -17q17 0 26.5 8.5t19.5 27.5h85q-15 -62 -55.5 -110t-99.5 -48q-26 0 -74.5 18.5t-71.5 18.5q-11 0 -19.5 -6.5t-11 -11.5z" />
    <glyph glyph-name="Odieresis" unicode="&#xd6;" horiz-adv-x="887" 
d="M566 779q81 0 152 -29t121 -79t73 -123.5t10 -156.5q-29 -183 -165 -299.5t-318 -116.5t-281 117t-70 299q17 111 90.5 201t176 138.5t211.5 48.5zM536 589q-87 0 -159.5 -60t-84.5 -139q-16 -96 36 -160.5t141 -64.5t161 64.5t88 160.5q12 79 -41.5 139t-140.5 60z
M476 1011q40 0 64.5 -28.5t18.5 -69.5q-7 -41 -40 -69.5t-74 -28.5t-65.5 28.5t-17.5 69.5q6 41 39.5 69.5t74.5 28.5zM732 1011q40 0 64.5 -28.5t18.5 -69.5q-7 -41 -40 -69.5t-74 -28.5t-65.5 28.5t-17.5 69.5q6 41 39.5 69.5t74.5 28.5z" />
    <glyph glyph-name="multiply" unicode="&#xd7;" 
d="M279 256l-128 151l123 106l126 -152l173 152l89 -106l-172 -151l126 -150l-123 -106l-126 150l-174 -150l-89 106z" />
    <glyph glyph-name="Oslash" unicode="&#xd8;" horiz-adv-x="887" 
d="M304 275l335 285q-45 29 -103 29q-87 0 -159.5 -60t-84.5 -139q-11 -65 12 -115zM706 481l-338 -287q43 -29 101 -29q89 0 161 64.5t88 160.5q8 50 -12 91zM27 40l104 89q-66 111 -43 262q17 111 90.5 201t176 138.5t211.5 48.5q138 0 238 -78l110 93l65 -80l-104 -89
q68 -100 47 -234q-29 -183 -165 -299.5t-318 -116.5q-145 0 -239 77l-107 -92z" />
    <glyph glyph-name="Ugrave" unicode="&#xd9;" horiz-adv-x="778" 
d="M641 754h196l-67 -424q-14 -92 -38 -154.5t-83 -111.5q-99 -84 -263 -84q-165 0 -237 84q-30 34 -40.5 82t-8 85.5t11.5 98.5l67 424h196l-62 -397q-6 -36 -8 -60t0.5 -54t13 -48t34.5 -30.5t60 -12.5t64 12.5t44.5 30.5t28.5 48.5t17.5 54t11.5 59.5zM394 951l123 80
l114 -172l-90 -59z" />
    <glyph glyph-name="Uacute" unicode="&#xda;" horiz-adv-x="778" 
d="M641 754h196l-67 -424q-14 -92 -38 -154.5t-83 -111.5q-99 -84 -263 -84q-165 0 -237 84q-30 34 -40.5 82t-8 85.5t11.5 98.5l67 424h196l-62 -397q-6 -36 -8 -60t0.5 -54t13 -48t34.5 -30.5t60 -12.5t64 12.5t44.5 30.5t28.5 48.5t17.5 54t11.5 59.5zM686 951l-195 -151
l-72 59l168 172z" />
    <glyph glyph-name="Ucircumflex" unicode="&#xdb;" horiz-adv-x="778" 
d="M641 754h196l-67 -424q-14 -92 -38 -154.5t-83 -111.5q-99 -84 -263 -84q-165 0 -237 84q-30 34 -40.5 82t-8 85.5t11.5 98.5l67 424h196l-62 -397q-6 -36 -8 -60t0.5 -54t13 -48t34.5 -30.5t60 -12.5t64 12.5t44.5 30.5t28.5 48.5t17.5 54t11.5 59.5zM308 876l244 164
l195 -164l-91 -84l-126 111l-162 -111z" />
    <glyph glyph-name="Udieresis" unicode="&#xdc;" horiz-adv-x="778" 
d="M641 754h196l-67 -424q-14 -92 -38 -154.5t-83 -111.5q-99 -84 -263 -84q-165 0 -237 84q-30 34 -40.5 82t-8 85.5t11.5 98.5l67 424h196l-62 -397q-6 -36 -8 -60t0.5 -54t13 -48t34.5 -30.5t60 -12.5t64 12.5t44.5 30.5t28.5 48.5t17.5 54t11.5 59.5zM421 1011
q40 0 64.5 -28.5t18.5 -69.5q-7 -41 -40 -69.5t-74 -28.5t-65.5 28.5t-17.5 69.5q6 41 39.5 69.5t74.5 28.5zM677 1011q40 0 64.5 -28.5t18.5 -69.5q-7 -41 -40 -69.5t-74 -28.5t-65.5 28.5t-17.5 69.5q6 41 39.5 69.5t74.5 28.5z" />
    <glyph glyph-name="Yacute" unicode="&#xdd;" horiz-adv-x="714" 
d="M316 362l-216 392h235l109 -205l173 205h235l-340 -392l-57 -362h-196zM674 951l-195 -151l-72 59l168 172z" />
    <glyph glyph-name="Thorn" unicode="&#xde;" horiz-adv-x="661" 
d="M64 0l119 754h196l-19 -120h104q127 0 191 -61.5t44 -186.5q-40 -256 -307 -256h-111l-21 -130h-196zM335 476l-29 -188h33q28 0 42.5 0.5t37.5 5.5t35.5 14t24 27t15.5 45q4 28 -1 46.5t-14 28.5t-30 14.5t-36.5 5.5t-44.5 1h-33z" />
    <glyph glyph-name="germandbls" unicode="&#xdf;" horiz-adv-x="651" 
d="M130 442l23 147q21 130 92 185q81 66 208 66q107 0 169 -58t45 -163q-8 -51 -35.5 -87t-78.5 -70q72 -31 100.5 -79t14.5 -134q-9 -56 -38 -111.5t-73 -88.5q-86 -66 -226 -66h-39l25 155q58 -2 101.5 31t52.5 90q9 56 -25.5 91t-90.5 31l23 145q45 -2 75.5 18t36.5 63
q6 35 -11.5 55.5t-52.5 20.5q-26 0 -44 -9t-27.5 -28t-14 -34.5t-8.5 -42.5l-90 -569h-182l47 297h-52l23 145h52z" />
    <glyph glyph-name="agrave" unicode="&#xe0;" horiz-adv-x="682" 
d="M387 372q-54 0 -90.5 -33.5t-44.5 -82.5q-8 -50 18 -82.5t80 -32.5t91 32.5t45 82.5q8 49 -18.5 82.5t-80.5 33.5zM702 513l-81 -513h-182l9 57h-2q-29 -36 -74 -55t-93 -19q-112 0 -172.5 80.5t-42.5 193.5t103 193t197 80q102 0 148 -67l8 50h182zM332 740l124 80
l114 -172l-91 -59z" />
    <glyph glyph-name="aacute" unicode="&#xe1;" horiz-adv-x="682" 
d="M387 372q-54 0 -90.5 -33.5t-44.5 -82.5q-8 -50 18 -82.5t80 -32.5t91 32.5t45 82.5q8 49 -18.5 82.5t-80.5 33.5zM702 513l-81 -513h-182l9 57h-2q-29 -36 -74 -55t-93 -19q-112 0 -172.5 80.5t-42.5 193.5t103 193t197 80q102 0 148 -67l8 50h182zM604 740l-195 -151
l-71 59l168 172z" />
    <glyph glyph-name="acircumflex" unicode="&#xe2;" horiz-adv-x="682" 
d="M387 372q-54 0 -90.5 -33.5t-44.5 -82.5q-8 -50 18 -82.5t80 -32.5t91 32.5t45 82.5q8 49 -18.5 82.5t-80.5 33.5zM702 513l-81 -513h-182l9 57h-2q-29 -36 -74 -55t-93 -19q-112 0 -172.5 80.5t-42.5 193.5t103 193t197 80q102 0 148 -67l8 50h182zM226 665l244 164
l195 -164l-90 -84l-126 111l-162 -111z" />
    <glyph glyph-name="atilde" unicode="&#xe3;" horiz-adv-x="682" 
d="M387 372q-54 0 -90.5 -33.5t-44.5 -82.5q-8 -50 18 -82.5t80 -32.5t91 32.5t45 82.5q8 49 -18.5 82.5t-80.5 33.5zM702 513l-81 -513h-182l9 57h-2q-29 -36 -74 -55t-93 -19q-112 0 -172.5 80.5t-42.5 193.5t103 193t197 80q102 0 148 -67l8 50h182zM323 616h-82v11
q8 51 36 89q42 56 98 56q27 0 83 -17t75 -17q17 0 26 8.5t20 27.5h85q-16 -63 -56 -110.5t-99 -47.5q-26 0 -75 18.5t-72 18.5q-4 0 -8 -1t-7 -2t-6 -4l-4 -4t-4 -6t-3.5 -6l-3.5 -7t-3 -7z" />
    <glyph glyph-name="adieresis" unicode="&#xe4;" horiz-adv-x="682" 
d="M387 372q-54 0 -90.5 -33.5t-44.5 -82.5q-8 -50 18 -82.5t80 -32.5t91 32.5t45 82.5q8 49 -18.5 82.5t-80.5 33.5zM702 513l-81 -513h-182l9 57h-2q-29 -36 -74 -55t-93 -19q-112 0 -172.5 80.5t-42.5 193.5t103 193t197 80q102 0 148 -67l8 50h182zM340 800q41 0 65 -29
t17 -69q-7 -41 -39.5 -69.5t-73.5 -28.5t-66 28.5t-18 69.5t40.5 69.5t74.5 28.5zM596 800q41 0 65 -29t17 -69q-7 -41 -39.5 -69.5t-73.5 -28.5t-66 28.5t-18 69.5t40.5 69.5t74.5 28.5z" />
    <glyph glyph-name="aring" unicode="&#xe5;" horiz-adv-x="682" 
d="M387 372q-54 0 -90.5 -33.5t-44.5 -82.5q-8 -50 18 -82.5t80 -32.5t91 32.5t45 82.5q8 49 -18.5 82.5t-80.5 33.5zM702 513l-81 -513h-182l9 57h-2q-29 -36 -74 -55t-93 -19q-112 0 -172.5 80.5t-42.5 193.5t103 193t197 80q102 0 148 -67l8 50h182zM469 815
q65 0 106 -27.5t31 -87.5q-10 -59 -58.5 -87t-111.5 -28q-41 0 -72.5 10t-51.5 36.5t-13 67.5q9 60 57.5 88t112.5 28zM460 743q-59 0 -66 -43q-3 -22 12.5 -32.5t39.5 -10.5t43 10.5t22 32.5t-12.5 32.5t-38.5 10.5z" />
    <glyph glyph-name="ae" unicode="&#xe6;" horiz-adv-x="940" 
d="M593 331h211q-1 36 -26.5 58.5t-63.5 22.5q-41 0 -73.5 -21t-47.5 -60zM309 218q-29 0 -55 -14t-30 -41q-5 -28 18.5 -41.5t54.5 -13.5q30 0 62.5 13.5t37.5 40.5q3 21 -13 34.5t-35 17.5t-40 4zM954 226h-383q-18 -114 96 -114q59 0 94 47h175q-33 -85 -118 -133
q-76 -43 -171 -43q-68 0 -121.5 24t-68.5 77q-44 -47 -104 -74t-120 -27q-52 0 -96.5 17t-72.5 56t-20 92q14 86 82 128.5t157 42.5q71 0 130 -26l3 15q8 49 -23.5 69.5t-84.5 20.5q-56 0 -147 -28l21 136q92 24 153 24q146 0 179 -91q36 44 92.5 67.5t114.5 23.5
q133 0 195 -76.5t41 -208.5z" />
    <glyph glyph-name="ccedilla" unicode="&#xe7;" horiz-adv-x="483" 
d="M509 500l-24 -154q-43 36 -88 36q-53 0 -95 -36t-50 -89q-9 -55 21.5 -90.5t86.5 -35.5q53 0 96 35l-24 -154q-62 -29 -133 -29q-116 0 -185 76.5t-51 191.5q19 122 114 200.5t217 78.5q66 0 115 -30zM341 -94l-174 -143l-70 49l155 158z" />
    <glyph glyph-name="egrave" unicode="&#xe8;" horiz-adv-x="610" 
d="M259 331h211q-1 36 -26.5 58.5t-63.5 22.5q-41 0 -73.5 -21t-47.5 -60zM626 245l-3 -19h-383q-18 -114 96 -114q59 0 94 47h175q-33 -85 -118 -133q-76 -43 -171 -43q-132 0 -202.5 72t-50.5 201q20 127 110 200.5t217 73.5q133 0 195 -76.5t41 -208.5zM271 740l124 80
l114 -172l-91 -59z" />
    <glyph glyph-name="eacute" unicode="&#xe9;" horiz-adv-x="610" 
d="M259 331h211q-1 36 -26.5 58.5t-63.5 22.5q-41 0 -73.5 -21t-47.5 -60zM626 245l-3 -19h-383q-18 -114 96 -114q59 0 94 47h175q-33 -85 -118 -133q-76 -43 -171 -43q-132 0 -202.5 72t-50.5 201q20 127 110 200.5t217 73.5q133 0 195 -76.5t41 -208.5zM573 740
l-195 -151l-71 59l168 172z" />
    <glyph glyph-name="ecircumflex" unicode="&#xea;" horiz-adv-x="610" 
d="M259 331h211q-1 36 -26.5 58.5t-63.5 22.5q-41 0 -73.5 -21t-47.5 -60zM626 245l-3 -19h-383q-18 -114 96 -114q59 0 94 47h175q-33 -85 -118 -133q-76 -43 -171 -43q-132 0 -202.5 72t-50.5 201q20 127 110 200.5t217 73.5q133 0 195 -76.5t41 -208.5zM190 665l244 164
l195 -164l-90 -84l-126 111l-162 -111z" />
    <glyph glyph-name="edieresis" unicode="&#xeb;" horiz-adv-x="610" 
d="M259 331h211q-1 36 -26.5 58.5t-63.5 22.5q-41 0 -73.5 -21t-47.5 -60zM626 245l-3 -19h-383q-18 -114 96 -114q59 0 94 47h175q-33 -85 -118 -133q-76 -43 -171 -43q-132 0 -202.5 72t-50.5 201q20 127 110 200.5t217 73.5q133 0 195 -76.5t41 -208.5zM304 800
q41 0 65 -29t17 -69q-7 -41 -39.5 -69.5t-73.5 -28.5t-66 28.5t-18 69.5t40.5 69.5t74.5 28.5zM560 800q41 0 65 -29t17 -69q-7 -41 -39.5 -69.5t-73.5 -28.5t-66 28.5t-18 69.5t40.5 69.5t74.5 28.5z" />
    <glyph glyph-name="igrave" unicode="&#xec;" horiz-adv-x="302" 
d="M323 513l-81 -513h-182l81 513h182zM127 740l124 80l114 -172l-91 -59z" />
    <glyph glyph-name="iacute" unicode="&#xed;" horiz-adv-x="302" 
d="M323 513l-81 -513h-182l81 513h182zM409 740l-195 -151l-71 59l168 172z" />
    <glyph glyph-name="icircumflex" unicode="&#xee;" horiz-adv-x="302" 
d="M323 513l-81 -513h-182l81 513h182zM36 665l244 164l195 -164l-90 -84l-126 111l-162 -111z" />
    <glyph glyph-name="idieresis" unicode="&#xef;" horiz-adv-x="302" 
d="M323 513l-81 -513h-182l81 513h182zM150 800q41 0 65 -29t17 -69q-7 -41 -39.5 -69.5t-73.5 -28.5t-66 28.5t-18 69.5t40.5 69.5t74.5 28.5zM406 800q41 0 65 -29t17 -69q-7 -41 -39.5 -69.5t-73.5 -28.5t-66 28.5t-18 69.5t40.5 69.5t74.5 28.5z" />
    <glyph glyph-name="eth" unicode="&#xf0;" horiz-adv-x="662" 
d="M159 744l122 104q101 -50 145 -83l138 67l53 -73l-112 -55l36 -36t34.5 -36t32.5 -38.5t28 -40t24 -43t17.5 -46.5t11.5 -51t3 -55t-5 -61q-25 -155 -129.5 -234.5t-235.5 -79.5q-50 0 -98.5 16t-90 47.5t-62 86t-9.5 122.5q19 118 113.5 190.5t201.5 72.5q26 0 58 -6
q-42 65 -95 112l-141 -69l-55 71l118 58q-49 35 -103 60zM390 372q-54 0 -90.5 -33.5t-44.5 -82.5q-8 -50 18 -82.5t80 -32.5t91 32.5t45 82.5q8 49 -18.5 82.5t-80.5 33.5z" />
    <glyph glyph-name="ntilde" unicode="&#xf1;" horiz-adv-x="661" 
d="M323 513l-10 -66h2q38 45 80 64t97 19q99 0 137 -56.5t22 -156.5l-50 -317h-182l40 250q0 3 2.5 17t3 20t1.5 19.5t0 20.5t-3 17.5t-7.5 16.5t-12.5 12.5t-18.5 9t-26.5 2.5q-95 0 -114 -119l-42 -266h-182l81 513h182zM312 616h-82v11q8 51 36 89q42 56 98 56
q27 0 83 -17t75 -17q17 0 26 8.5t20 27.5h85q-16 -63 -56 -110.5t-99 -47.5q-26 0 -75 18.5t-72 18.5q-4 0 -8 -1t-7 -2t-6 -4l-4 -4t-4 -6t-3.5 -6l-3.5 -7t-3 -7z" />
    <glyph glyph-name="ograve" unicode="&#xf2;" horiz-adv-x="662" 
d="M415 530q130 0 208 -74t58 -200q-14 -84 -67 -147t-127.5 -94.5t-158.5 -31.5q-129 0 -207 73.5t-58 199.5q19 126 120.5 200t231.5 74zM390 372q-54 0 -90.5 -33.5t-44.5 -82.5q-8 -50 18 -82.5t80 -32.5t91 32.5t45 82.5q8 49 -18.5 82.5t-80.5 33.5zM297 740l124 80
l114 -172l-91 -59z" />
    <glyph glyph-name="oacute" unicode="&#xf3;" horiz-adv-x="662" 
d="M415 530q130 0 208 -74t58 -200q-14 -84 -67 -147t-127.5 -94.5t-158.5 -31.5q-129 0 -207 73.5t-58 199.5q19 126 120.5 200t231.5 74zM390 372q-54 0 -90.5 -33.5t-44.5 -82.5q-8 -50 18 -82.5t80 -32.5t91 32.5t45 82.5q8 49 -18.5 82.5t-80.5 33.5zM599 740
l-195 -151l-71 59l168 172z" />
    <glyph glyph-name="ocircumflex" unicode="&#xf4;" horiz-adv-x="662" 
d="M415 530q130 0 208 -74t58 -200q-14 -84 -67 -147t-127.5 -94.5t-158.5 -31.5q-129 0 -207 73.5t-58 199.5q19 126 120.5 200t231.5 74zM390 372q-54 0 -90.5 -33.5t-44.5 -82.5q-8 -50 18 -82.5t80 -32.5t91 32.5t45 82.5q8 49 -18.5 82.5t-80.5 33.5zM216 665l244 164
l195 -164l-90 -84l-126 111l-162 -111z" />
    <glyph glyph-name="otilde" unicode="&#xf5;" horiz-adv-x="662" 
d="M415 530q130 0 208 -74t58 -200q-14 -84 -67 -147t-127.5 -94.5t-158.5 -31.5q-129 0 -207 73.5t-58 199.5q19 126 120.5 200t231.5 74zM390 372q-54 0 -90.5 -33.5t-44.5 -82.5q-8 -50 18 -82.5t80 -32.5t91 32.5t45 82.5q8 49 -18.5 82.5t-80.5 33.5zM313 616h-82v11
q8 51 36 89q42 56 98 56q27 0 83 -17t75 -17q17 0 26 8.5t20 27.5h85q-16 -63 -56 -110.5t-99 -47.5q-26 0 -75 18.5t-72 18.5q-4 0 -8 -1t-7 -2t-6 -4l-4 -4t-4 -6t-3.5 -6l-3.5 -7t-3 -7z" />
    <glyph glyph-name="odieresis" unicode="&#xf6;" horiz-adv-x="662" 
d="M415 530q130 0 208 -74t58 -200q-14 -84 -67 -147t-127.5 -94.5t-158.5 -31.5q-129 0 -207 73.5t-58 199.5q19 126 120.5 200t231.5 74zM390 372q-54 0 -90.5 -33.5t-44.5 -82.5q-8 -50 18 -82.5t80 -32.5t91 32.5t45 82.5q8 49 -18.5 82.5t-80.5 33.5zM330 800
q41 0 65 -29t17 -69q-7 -41 -39.5 -69.5t-73.5 -28.5t-66 28.5t-18 69.5t40.5 69.5t74.5 28.5zM586 800q41 0 65 -29t17 -69q-7 -41 -39.5 -69.5t-73.5 -28.5t-66 28.5t-18 69.5t40.5 69.5t74.5 28.5z" />
    <glyph glyph-name="divide" unicode="&#xf7;" 
d="M140 332h512l-24 -150h-512zM363 127q30 0 48 -21t13 -51t-29.5 -51t-54.5 -21t-47.5 21t-12.5 51q4 30 28.5 51t54.5 21zM427 531q30 0 48 -21t13 -51t-29.5 -51t-54.5 -21t-47.5 21t-12.5 51q4 30 28.5 51t54.5 21z" />
    <glyph glyph-name="oslash" unicode="&#xf8;" horiz-adv-x="662" 
d="M255 214l177 151q-21 7 -42 7q-54 0 -90.5 -33.5t-44.5 -82.5q-5 -23 0 -42zM488 299l-177 -151q18 -7 42 -7q54 0 91 32.5t45 82.5q3 24 -1 43zM24 16l76 65q-54 72 -37 175q19 126 120.5 200t231.5 74q94 0 163 -40l82 70l60 -62l-77 -66q54 -73 38 -176
q-14 -84 -67 -147t-127.5 -94.5t-158.5 -31.5q-95 0 -162 40l-82 -70z" />
    <glyph glyph-name="ugrave" unicode="&#xf9;" horiz-adv-x="659" 
d="M138 513h182l-43 -274q-8 -55 6.5 -83t66.5 -28q53 0 77 28.5t32 82.5l43 274h182l-49 -309q-34 -221 -308 -221q-126 0 -191 51t-47 170zM291 740l124 80l114 -172l-91 -59z" />
    <glyph glyph-name="uacute" unicode="&#xfa;" horiz-adv-x="659" 
d="M138 513h182l-43 -274q-8 -55 6.5 -83t66.5 -28q53 0 77 28.5t32 82.5l43 274h182l-49 -309q-34 -221 -308 -221q-126 0 -191 51t-47 170zM603 740l-195 -151l-71 59l168 172z" />
    <glyph glyph-name="ucircumflex" unicode="&#xfb;" horiz-adv-x="659" 
d="M138 513h182l-43 -274q-8 -55 6.5 -83t66.5 -28q53 0 77 28.5t32 82.5l43 274h182l-49 -309q-34 -221 -308 -221q-126 0 -191 51t-47 170zM215 665l244 164l195 -164l-90 -84l-126 111l-162 -111z" />
    <glyph glyph-name="udieresis" unicode="&#xfc;" horiz-adv-x="659" 
d="M138 513h182l-43 -274q-8 -55 6.5 -83t66.5 -28q53 0 77 28.5t32 82.5l43 274h182l-49 -309q-34 -221 -308 -221q-126 0 -191 51t-47 170zM329 800q41 0 65 -29t17 -69q-7 -41 -39.5 -69.5t-73.5 -28.5t-66 28.5t-18 69.5t40.5 69.5t74.5 28.5zM585 800q41 0 65 -29
t17 -69q-7 -41 -39.5 -69.5t-73.5 -28.5t-66 28.5t-18 69.5t40.5 69.5t74.5 28.5z" />
    <glyph glyph-name="yacute" unicode="&#xfd;" horiz-adv-x="654" 
d="M244 70l-178 443h210l96 -263l175 263h207l-533 -769h-204zM610 740l-195 -151l-71 59l168 172z" />
    <glyph glyph-name="thorn" unicode="&#xfe;" horiz-adv-x="682" 
d="M367 830l-59 -375h2q30 37 75 56t92 19q112 0 172.5 -81t42.5 -194t-103 -192.5t-197 -79.5q-101 0 -148 66l-49 -305h-182l172 1086h182zM406 372q-54 0 -90.5 -33.5t-44.5 -82.5q-8 -50 18 -82.5t80 -32.5t91 32.5t45 82.5q8 49 -18.5 82.5t-80.5 33.5z" />
    <glyph glyph-name="ydieresis" unicode="&#xff;" horiz-adv-x="654" 
d="M244 70l-178 443h210l96 -263l175 263h207l-533 -769h-204zM341 800q41 0 65 -29t17 -69q-7 -41 -39.5 -69.5t-73.5 -28.5t-66 28.5t-18 69.5t40.5 69.5t74.5 28.5zM597 800q41 0 65 -29t17 -69q-7 -41 -39.5 -69.5t-73.5 -28.5t-66 28.5t-18 69.5t40.5 69.5t74.5 28.5z
" />
    <glyph glyph-name="dotlessi" unicode="&#x131;" horiz-adv-x="302" 
d="M323 513l-81 -513h-182l81 513h182z" />
    <glyph glyph-name="Lslash" unicode="&#x141;" horiz-adv-x="533" 
d="M56 233l22 142l92 53l51 326h196l-31 -200l124 72l-23 -146l-124 -71l-39 -243h235l-26 -166h-431l45 285z" />
    <glyph glyph-name="lslash" unicode="&#x142;" horiz-adv-x="366" 
d="M92 0l52 331l-92 -51l20 124l92 52l59 374h182l-42 -266l92 51l-19 -125l-92 -51l-70 -439h-182z" />
    <glyph glyph-name="OE" unicode="&#x152;" horiz-adv-x="1140" 
d="M660 0l13 83q-117 -108 -257 -108q-106 0 -188 55.5t-120.5 148t-21.5 198.5q26 162 161 282t296 120q146 0 225 -94l11 69h424l-26 -166h-229l-20 -126h213l-26 -166h-213l-21 -130h229l-26 -166h-424zM534 589q-87 0 -159 -62t-85 -150q-14 -87 38 -149.5t139 -62.5
t158.5 62.5t85.5 149.5q14 88 -37.5 150t-139.5 62z" />
    <glyph glyph-name="oe" unicode="&#x153;" horiz-adv-x="1022" 
d="M670 331h211q-1 36 -26.5 58.5t-63.5 22.5q-41 0 -73.5 -21t-47.5 -60zM389 372q-48 0 -87.5 -34.5t-47.5 -81.5q-8 -48 21 -81.5t77 -33.5t88 33.5t48 81.5q8 47 -21.5 81.5t-77.5 34.5zM1040 245l-3 -19h-383q-18 -114 96 -114q59 0 94 47h175q-33 -85 -118 -133
q-76 -43 -171 -43q-144 0 -194 89q-51 -49 -102.5 -69t-119.5 -20q-130 0 -201 72.5t-51 200.5q20 126 114.5 200t222.5 74q67 0 113.5 -17t84.5 -60q70 77 207 77q133 0 195 -76.5t41 -208.5z" />
    <glyph glyph-name="Scaron" unicode="&#x160;" horiz-adv-x="616" 
d="M669 712l-102 -152q-53 50 -122 50q-31 0 -60.5 -17t-33.5 -46q-2 -16 3.5 -28t20 -21t24.5 -13t27 -10l48 -15q84 -26 125.5 -73.5t27.5 -132.5q-22 -137 -110 -203q-95 -71 -225 -71q-142 0 -252 86l109 158q78 -78 162 -78q38 0 69.5 19.5t37.5 56.5q2 13 -1 24
t-14.5 20.5t-17.5 14.5t-26 12t-23 8t-23 7q-22 7 -37.5 12t-34 12t-30.5 14t-25 17t-21 20.5t-15 25t-9 31t-2 37t4 44.5q18 114 102 183.5t198 69.5q126 0 226 -62zM239 955l88 85l126 -112l162 112l63 -85l-247 -163z" />
    <glyph glyph-name="scaron" unicode="&#x161;" horiz-adv-x="513" 
d="M539 497l-80 -116q-42 25 -94 25q-20 0 -39.5 -8.5t-22.5 -26.5q-1 -7 1 -13t7.5 -10.5t10.5 -7.5t14 -5.5t14.5 -3.5t15 -2.5t12.5 -2.5q144 -30 125 -152q-15 -94 -94.5 -142.5t-178.5 -48.5q-110 0 -197 59l86 127q26 -21 65 -36.5t71 -15.5q21 0 40.5 10t22.5 29
q2 11 -2.5 19.5t-17 14t-23 8.5t-31 7.5t-31.5 7.5q-50 14 -76.5 43.5t-16.5 91.5q10 60 50.5 102.5t93 61t111.5 18.5q97 0 164 -33zM155 744l87 85l127 -112l161 112l64 -85l-247 -163z" />
    <glyph glyph-name="Ydieresis" unicode="&#x178;" horiz-adv-x="714" 
d="M316 362l-216 392h235l109 -205l173 205h235l-340 -392l-57 -362h-196zM399 1011q40 0 64.5 -28.5t18.5 -69.5q-7 -41 -40 -69.5t-74 -28.5t-65.5 28.5t-17.5 69.5q6 41 39.5 69.5t74.5 28.5zM655 1011q40 0 64.5 -28.5t18.5 -69.5q-7 -41 -40 -69.5t-74 -28.5
t-65.5 28.5t-17.5 69.5q6 41 39.5 69.5t74.5 28.5z" />
    <glyph glyph-name="Zcaron" unicode="&#x17d;" horiz-adv-x="707" 
d="M367 166h316l-26 -166h-646l450 588h-296l26 166h624zM295 955l88 85l126 -112l162 112l63 -85l-247 -163z" />
    <glyph glyph-name="zcaron" unicode="&#x17e;" horiz-adv-x="559" 
d="M336 151h216l-24 -151h-520l298 362h-209l24 151h512zM178 744l87 85l127 -112l161 112l64 -85l-247 -163z" />
    <glyph glyph-name="florin" unicode="&#x192;" 
d="M551 505h110l-25 -76h-110l-95 -279q-18 -54 -30.5 -86t-36.5 -74t-55 -75q-102 -108 -238 -96l-104 9l56 165q49 -9 69 -9q40 0 66 15.5t48 52.5q19 34 57 144l79 233h-86l24 76h88l37 108q35 101 86 148q72 69 172 69q81 0 125 -34l-54 -157q-36 30 -73 30
q-25 0 -44.5 -19t-26 -34t-17.5 -48q-2 -5 -3 -8z" />
    <glyph glyph-name="circumflex" unicode="&#x2c6;" horiz-adv-x="590" 
d="M180 665l244 164l195 -164l-90 -84l-126 111l-162 -111z" />
    <glyph glyph-name="caron" unicode="&#x2c7;" horiz-adv-x="590" 
d="M193 744l87 85l127 -112l161 112l64 -85l-247 -163z" />
    <glyph glyph-name="uni02C9" unicode="&#x2c9;" horiz-adv-x="603" 
d="M194 752h452l-17 -107h-452z" />
    <glyph glyph-name="breve" unicode="&#x2d8;" horiz-adv-x="539" 
d="M199 784h112q0 -32 19.5 -49.5t52.5 -17.5q71 0 93 67h111q-17 -80 -77.5 -124.5t-143.5 -44.5t-129 44.5t-38 124.5z" />
    <glyph glyph-name="dotaccent" unicode="&#x2d9;" horiz-adv-x="402" 
d="M329 800q41 0 65 -29t17 -69q-7 -41 -39.5 -69.5t-73.5 -28.5t-66 28.5t-18 69.5t40.5 69.5t74.5 28.5z" />
    <glyph glyph-name="ring" unicode="&#x2da;" horiz-adv-x="457" 
d="M356 815q65 0 106 -27.5t31 -87.5q-10 -59 -58.5 -87t-111.5 -28q-41 0 -72.5 10t-51.5 36.5t-13 67.5q9 60 57.5 88t112.5 28zM347 743q-59 0 -66 -43q-3 -22 12.5 -32.5t39.5 -10.5t43 10.5t22 32.5t-12.5 32.5t-38.5 10.5z" />
    <glyph glyph-name="ogonek" unicode="&#x2db;" horiz-adv-x="350" 
d="M159 0h75v-2q-66 -33 -72 -74q-3 -19 8.5 -32.5t30.5 -13.5q21 0 57 19l-37 -92q-34 -19 -83 -19q-37 0 -63 25t-20 61q6 39 35 72.5t69 55.5z" />
    <glyph glyph-name="tilde" unicode="&#x2dc;" horiz-adv-x="549" 
d="M256 616h-82v11q8 51 36 89q42 56 98 56q27 0 83 -17t75 -17q17 0 26 8.5t20 27.5h85q-16 -63 -56 -110.5t-99 -47.5q-26 0 -75 18.5t-72 18.5q-4 0 -8 -1t-7 -2t-6 -4l-4 -4t-4 -6t-3.5 -6l-3.5 -7t-3 -7z" />
    <glyph glyph-name="hungarumlaut" unicode="&#x2dd;" horiz-adv-x="539" 
d="M383 814l-84 -214h-93l48 214h129zM557 814l-84 -214h-93l48 214h129z" />
    <glyph glyph-name="uni03A9" unicode="&#x3a9;" horiz-adv-x="869" 
d="M226 137v4q-53 50 -83 126.5t-15 172.5q23 147 145 252t290 105q87 0 154 -31.5t104.5 -82.5t52.5 -112.5t5 -124.5q-31 -186 -197 -305v-4h165l-22 -137h-339l16 103q157 86 192 307q17 105 -23.5 176t-129.5 71q-88 0 -154.5 -70.5t-84.5 -182.5q-17 -110 11 -189
t85 -112l-16 -103h-340l22 137h162z" />
    <glyph glyph-name="uni03BC" unicode="&#x3bc;" horiz-adv-x="659" 
d="M138 513h182l-43 -274q-8 -55 6.5 -83t66.5 -28q53 0 77 28.5t32 82.5l43 274h182l-49 -309q-10 -62 -39.5 -107.5t-70 -69t-80 -34t-78.5 -10.5q-78 0 -123 49l-46 -288h-182z" />
    <glyph glyph-name="pi" unicode="&#x3c0;" horiz-adv-x="743" 
d="M786 448h-80l-43 -272q-18 -112 -13 -176h-173q-15 33 6 167l45 281h-148q-19 -101 -60.5 -236.5t-81.5 -211.5h-173q43 96 85 228.5t56 219.5q-80 0 -117 -10v112q56 41 215 41h519z" />
    <glyph glyph-name="endash" unicode="&#x2013;" horiz-adv-x="500" 
d="M63 396h500l-24 -150h-500z" />
    <glyph glyph-name="emdash" unicode="&#x2014;" horiz-adv-x="1000" 
d="M193 396h740l-24 -150h-740z" />
    <glyph glyph-name="quoteleft" unicode="&#x2018;" horiz-adv-x="372" 
d="M256 423h-170l236 331h116z" />
    <glyph glyph-name="quoteright" unicode="&#x2019;" horiz-adv-x="372" 
d="M302 754h170l-236 -331h-116z" />
    <glyph glyph-name="quotesinglbase" unicode="&#x201a;" horiz-adv-x="338" 
d="M179 191h170l-236 -331h-116z" />
    <glyph glyph-name="quotedblleft" unicode="&#x201c;" horiz-adv-x="628" 
d="M512 423h-170l236 331h116zM256 423h-170l236 331h116z" />
    <glyph glyph-name="quotedblright" unicode="&#x201d;" horiz-adv-x="628" 
d="M302 754h170l-236 -331h-116zM558 754h170l-236 -331h-116z" />
    <glyph glyph-name="quotedblbase" unicode="&#x201e;" horiz-adv-x="594" 
d="M179 191h170l-236 -331h-116zM435 191h170l-236 -331h-116z" />
    <glyph glyph-name="dagger" unicode="&#x2020;" 
d="M379 754h166l-32 -205h177l-23 -144h-177l-93 -585h-166l93 585h-176l23 144h176z" />
    <glyph glyph-name="daggerdbl" unicode="&#x2021;" 
d="M380 754h166l-29 -185h176l-23 -144h-176l-22 -142h176l-23 -144h-176l-50 -318h-166l50 318h-177l23 144h177l22 142h-177l23 144h177z" />
    <glyph glyph-name="bullet" unicode="&#x2022;" 
d="M434 566q80 0 125 -55t33 -134q-13 -78 -75.5 -133t-142.5 -55t-126 55t-33 133q12 79 75.5 134t143.5 55z" />
    <glyph glyph-name="ellipsis" unicode="&#x2026;" horiz-adv-x="1000" 
d="M534 214q49 0 77.5 -34t20.5 -83q-8 -48 -47 -82.5t-88 -34.5t-78 34.5t-21 82.5q8 49 47.5 83t88.5 34zM867 214q49 0 77.5 -34t20.5 -83q-8 -48 -47 -82.5t-88 -34.5t-78 34.5t-21 82.5q8 49 47.5 83t88.5 34zM201 214q49 0 77.5 -34t20.5 -83q-8 -48 -47 -82.5
t-88 -34.5t-78 34.5t-21 82.5q8 49 47.5 83t88.5 34z" />
    <glyph glyph-name="perthousand" unicode="&#x2030;" horiz-adv-x="1460" 
d="M346 764q88 0 139.5 -48.5t37.5 -134.5q-14 -88 -79.5 -137t-155.5 -49t-140.5 49t-36.5 137q14 86 80.5 134.5t154.5 48.5zM330 664q-35 0 -64 -25t-34 -60q-6 -35 15 -59.5t56 -24.5t64 24.5t35 59.5q5 35 -16 60t-56 25zM807 359q88 0 139.5 -48.5t37.5 -134.5
q-14 -88 -80 -137t-156 -49t-140 49t-36 137q14 86 80.5 134.5t154.5 48.5zM791 259q-35 0 -64 -25t-34 -60q-6 -35 15 -59.5t56 -24.5t64 24.5t35 59.5q5 35 -16 60t-56 25zM1292 359q88 0 139.5 -48.5t37.5 -134.5q-14 -88 -80 -137t-156 -49t-140 49t-36 137
q14 86 80.5 134.5t154.5 48.5zM1276 259q-35 0 -64 -25t-34 -60q-6 -35 15 -59.5t56 -24.5t64 24.5t35 59.5q5 35 -16 60t-56 25zM776 754h98l-557 -754h-98z" />
    <glyph glyph-name="guilsinglleft" unicode="&#x2039;" horiz-adv-x="354" 
d="M223 320l101 -174l-114 -72l-133 246l211 246l89 -69z" />
    <glyph glyph-name="guilsinglright" unicode="&#x203a;" horiz-adv-x="354" 
d="M76 146l157 174l-98 177l111 69l133 -246l-211 -246z" />
    <glyph glyph-name="fraction" unicode="&#x2044;" horiz-adv-x="194" 
d="M386 754h98l-557 -754h-98z" />
    <glyph glyph-name="Euro" unicode="&#x20ac;" 
d="M745 740l-25 -157q-43 51 -150 51q-143 0 -189 -129h286l-54 -102h-261q-1 -4 -3 -14t-3 -14q-3 -18 -3 -34h236l-54 -102h-183q5 -121 147 -121q105 0 165 49l-24 -157q-68 -39 -194 -39q-280 0 -284 268h-95l54 102h47q0 7 4 33q4 24 6 29h-85l54 102h56
q97 278 372 278q63 0 111 -13.5t69 -29.5z" />
    <glyph glyph-name="afii61289" unicode="&#x2113;" horiz-adv-x="643" 
d="M583 214l59 -73q-117 -168 -293 -168q-98 0 -145 47t-50 127q0 6 1 10q-12 -7 -33.5 -21.5t-32.5 -20.5l-30 90q6 4 49 32.5t64 43.5l41 263q24 150 98 226t177 76q90 0 126.5 -58.5t22.5 -149.5q-15 -95 -90 -187.5t-210 -197.5l-5 -41q-5 -46 17.5 -73t64.5 -27
q83 0 169 102zM386 560l-25 -154q145 134 162 237q13 84 -44 84q-29 0 -54 -38.5t-39 -128.5z" />
    <glyph glyph-name="trademark" unicode="&#x2122;" horiz-adv-x="940" 
d="M1018 754l-64 -404h-88l52 326h-2l-169 -326h-52l-65 326h-2l-52 -326h-88l64 404h142l54 -239l128 239h142zM503 754l-12 -78h-123l-52 -326h-97l52 326h-123l12 78h343z" />
    <glyph glyph-name="Omega" unicode="&#x2126;" horiz-adv-x="869" 
d="M226 137v4q-53 50 -83 126.5t-15 172.5q23 147 145 252t290 105q87 0 154 -31.5t104.5 -82.5t52.5 -112.5t5 -124.5q-31 -186 -197 -305v-4h165l-22 -137h-339l16 103q157 86 192 307q17 105 -23.5 176t-129.5 71q-88 0 -154.5 -70.5t-84.5 -182.5q-17 -110 11 -189
t85 -112l-16 -103h-340l22 137h162z" />
    <glyph glyph-name="estimated" unicode="&#x212e;" horiz-adv-x="1106" 
d="M1067 366h-732q-6 0 -6 -5v-222q0 -15 9 -25q116 -119 277 -119q86 0 161.5 35.5t130.5 97.5h65q-62 -73 -156 -115t-202 -42q-187 0 -319.5 119t-132.5 287q0 111 60.5 204.5t164.5 148t227 54.5q188 0 320.5 -119t132.5 -288v-11zM901 395v222q0 16 -11 27
q-117 115 -275 115t-275 -119q-11 -10 -11 -27v-218q0 -8 6 -8h561q5 0 5 8z" />
    <glyph glyph-name="partialdiff" unicode="&#x2202;" horiz-adv-x="707" 
d="M229 678l-29 124q106 68 244 68q148 0 229 -115.5t49 -316.5q-33 -210 -148.5 -337t-276.5 -127q-64 0 -111.5 26t-71.5 67t-33 87t-2 91q21 131 108.5 213.5t201.5 82.5q65 0 106 -30t55 -61h1q3 8 6 32q16 100 -26.5 174.5t-132.5 74.5q-87 0 -169 -53zM337 114h1
q56 0 105 63t71 139q-4 30 -33 60t-76 30q-55 0 -98.5 -49t-54.5 -117q-8 -53 15.5 -89.5t69.5 -36.5z" />
    <glyph glyph-name="Delta" unicode="&#x2206;" horiz-adv-x="802" 
d="M28 0l15 94l382 707h212l150 -705l-15 -96h-744zM236 137h364l-71 304q-3 24 -15.5 94.5t-15.5 96.5h-4q-9 -20 -40.5 -84.5t-44.5 -91.5z" />
    <glyph glyph-name="product" unicode="&#x220f;" horiz-adv-x="1001" 
d="M975 630h-121v-738h-175v738h-233v-738h-174v738h-122v154h825v-154z" />
    <glyph glyph-name="summation" unicode="&#x2211;" horiz-adv-x="802" 
d="M784 -108h-634v105l279 340l-267 329v118h601v-147h-362v-4l227 -270l-253 -311v-4h409v-156z" />
    <glyph glyph-name="minus" unicode="&#x2212;" 
d="M140 332h512l-24 -150h-512z" />
    <glyph glyph-name="uni2215" unicode="&#x2215;" horiz-adv-x="194" 
d="M386 754h98l-557 -754h-98z" />
    <glyph glyph-name="uni2219" unicode="&#x2219;" horiz-adv-x="343" 
d="M231 373q49 0 78 -34t21 -83q-8 -48 -48 -82.5t-88 -34.5q-49 0 -77.5 34.5t-20.5 82.5q8 49 47 83t88 34z" />
    <glyph glyph-name="radical" unicode="&#x221a;" horiz-adv-x="847" 
d="M867 941l-276 -1099h-138l-178 482l-88 -35l-28 91l219 90l119 -344q5 -19 14 -53t12 -47l2 -1q2 8 5.5 29t7 41t7.5 39l199 807h123z" />
    <glyph glyph-name="infinity" unicode="&#x221e;" horiz-adv-x="987" 
d="M934 324v-1q0 -94 -57 -150.5t-134 -56.5q-53 0 -103 28t-104 101q-50 -63 -98.5 -96t-113.5 -33q-76 0 -132 56.5t-56 144.5q0 90 56.5 147t142.5 57q62 0 111 -31.5t96 -92.5q53 60 80 81q58 44 127 43q79 0 132 -54.5t53 -142.5zM335 207h2q28 0 57.5 18t47.5 36.5
t45 51.5q-22 30 -27.5 38t-25 30t-31 29t-31 14.5t-40.5 7.5q-46 0 -74 -32t-28 -84q0 -45 30.5 -77t74.5 -32zM740 432h-1q-14 0 -27 -3.5t-26.5 -12t-22.5 -14t-23 -20.5t-18 -20t-18.5 -22.5t-15.5 -18.5q51 -66 84 -90t73 -24q43 0 69.5 34.5t26.5 74.5q0 50 -28 83
t-73 33z" />
    <glyph glyph-name="integral" unicode="&#x222b;" horiz-adv-x="599" 
d="M579 961l-16 -114q-22 9 -44 9q-39 0 -60 -31q-29 -38 -29 -182q0 -90 9.5 -255.5t9.5 -272.5q0 -148 -41 -222q-48 -93 -165 -93q-60 0 -98 19l20 119q29 -12 52 -12q35 0 52 22q31 40 31 167q0 107 -9.5 277.5t-9.5 267.5q0 99 17.5 159t56.5 101q51 54 148 54
q46 0 76 -13z" />
    <glyph glyph-name="approxequal" unicode="&#x2248;" horiz-adv-x="736" 
d="M633 524l61 -58q-33 -57 -76 -89t-90 -32q-58 0 -133 45q-23 14 -33 19.5t-29 12t-37 6.5q-24 0 -46.5 -14t-34 -27t-32.5 -41l-60 59q27 52 76 86t103 34q26 0 51.5 -8t36.5 -13.5t35 -19.5l17.5 -10.5t16 -9.5t13 -7t14 -6.5t12.5 -4.5t14.5 -3.5t13.5 -0.5
q31 0 55.5 20.5t51.5 61.5zM633 300l61 -58q-71 -121 -168 -121q-33 0 -61 10.5t-70 34.5q-62 39 -99 39q-24 0 -46.5 -14t-34 -27.5t-32.5 -41.5l-60 59q27 52 76 86t103 34q53 0 122 -39q4 -2 24 -14.5t27 -16t22 -8t28 -4.5q32 0 55 19t53 62z" />
    <glyph glyph-name="notequal" unicode="&#x2260;" horiz-adv-x="751" 
d="M585 587l-43 -96h154v-98h-192l-66 -150h258v-97h-297l-58 -132l-77 33l44 99h-154v97h193l65 150h-258v98h296l57 128z" />
    <glyph glyph-name="lessequal" unicode="&#x2264;" horiz-adv-x="769" 
d="M712 119l-535 255v105l534 254v-111l-436 -194v-2l437 -195v-112zM715 -21h-542v100h542v-100z" />
    <glyph glyph-name="greaterequal" unicode="&#x2265;" horiz-adv-x="768" 
d="M179 733l534 -254v-106l-534 -254v112l435 195v2l-435 194v111zM712 -21h-538v100h538v-100z" />
    <glyph glyph-name="lozenge" unicode="&#x25ca;" horiz-adv-x="845" 
d="M791 391l-239 -448h-138l-234 448l239 449h138zM638 387l-129 255q-16 40 -21 64h-4q-6 -24 -22 -64l-129 -248l130 -258q16 -43 20 -60h5q10 39 20 58z" />
    </font>
</defs>
</svg>
