<?xml version="1.0" standalone="no"?>
<!DOCTYPE svg PUBLIC "-//W3C//DTD SVG 1.1//EN" "http://www.w3.org/Graphics/SVG/1.1/DTD/svg11.dtd" >
<svg xmlns="http://www.w3.org/2000/svg" xmlns:xlink="http://www.w3.org/1999/xlink" version="1.1">
<metadata>
Created by FontForge 20170731 at Fri May 12 16:53:29 2006
 By Aleksey,,,
Copyright (c) 1987, 1991, 1993, 2002 Adobe Systems Incorporated.  All Rights Reserved.
</metadata>
<defs>
<font id="FuturaStd-MediumOblique" horiz-adv-x="578" >
  <font-face 
    font-family="Futura Std Medium"
    font-weight="500"
    font-style="oblique"
    font-stretch="normal"
    units-per-em="1000"
    panose-1="2 11 5 2 2 2 4 2 3 3"
    ascent="825"
    descent="-175"
    x-height="468"
    cap-height="754"
    bbox="-161 -297 1232 995"
    underline-thickness="50"
    underline-position="-200"
    slope="-9"
    unicode-range="U+0020-FB02"
  />
<missing-glyph horiz-adv-x="611" 
d="M111 0v700h500v-700h-500zM361 395l170 255h-340zM391 350l170 -255v510zM191 50h340l-170 255zM161 605v-510l170 255z" />
    <glyph glyph-name="fi" unicode="fi" horiz-adv-x="512" 
d="M504 468l-74 -468h-90l74 468h90zM503 745q26 0 41 -18.5t11 -44.5q-4 -25 -25 -43t-47 -18q-25 0 -40.5 17.5t-11.5 43.5q5 26 26 44.5t46 18.5zM431 868l-14 -91q-40 19 -57 19q-18 0 -32.5 -9.5t-22.5 -21.5t-14.5 -32t-9 -32.5t-5.5 -31.5l-32 -201h124l-13 -84h-124
l-61 -384h-90l61 384h-41l13 84h41l36 228q29 184 180 184q34 0 61 -12z" />
    <glyph glyph-name="fl" unicode="fl" horiz-adv-x="497" 
d="M568 868l-137 -868h-90l137 868h90zM431 868l-14 -91q-40 19 -57 19q-18 0 -32.5 -9.5t-22.5 -21.5t-14.5 -32t-9 -32.5t-5.5 -31.5l-32 -201h124l-13 -84h-124l-61 -384h-90l61 384h-41l13 84h41l36 228q29 184 180 184q34 0 61 -12z" />
    <glyph glyph-name=".notdef" horiz-adv-x="611" 
d="M111 0v700h500v-700h-500zM361 395l170 255h-340zM391 350l170 -255v510zM191 50h340l-170 255zM161 605v-510l170 255z" />
    <glyph glyph-name=".null" horiz-adv-x="0" 
 />
    <glyph glyph-name="nonmarkingreturn" horiz-adv-x="333" 
 />
    <glyph glyph-name="space" unicode=" " horiz-adv-x="289" 
 />
    <glyph glyph-name="exclam" unicode="!" horiz-adv-x="321" 
d="M177 100q24 0 38.5 -17.5t10.5 -40.5q-4 -24 -24 -41t-44 -17t-38 17t-10 41q4 23 23.5 40.5t43.5 17.5zM144 174l91 580h90l-91 -580h-90z" />
    <glyph glyph-name="quotedbl" unicode="&#x22;" horiz-adv-x="439" 
d="M209 754h98l-70 -328h-62zM370 754h98l-70 -328h-62z" />
    <glyph glyph-name="numbersign" unicode="#" 
d="M331 718h77l-67 -194h124l66 194h79l-66 -194h92l-13 -80h-107l-51 -154h101l-13 -80h-117l-71 -210h-76l70 210h-123l-73 -210h-75l70 210h-100l13 80h115l51 154h-105l13 80h119zM315 444l-51 -154h123l51 154h-123z" />
    <glyph glyph-name="dollar" unicode="$" 
d="M388 349l-43 -271q48 10 83.5 49t43.5 87q13 80 -84 135zM405 770l14 90h50l-14 -90q112 -11 153 -116l-87 -45q-19 55 -80 74l-37 -235q83 -39 127.5 -92.5t31.5 -137.5q-14 -82 -82.5 -152.5t-150.5 -81.5l-15 -95h-50l15 95q-87 1 -143 62t-56 148l93 19
q2 -66 29.5 -99.5t90.5 -41.5l48 300l-33 18q-65 36 -95.5 76t-19.5 107q11 75 73.5 133t137.5 64zM358 472l33 211q-41 -6 -72 -35t-37 -68q-11 -71 76 -108z" />
    <glyph glyph-name="percent" unicode="%" horiz-adv-x="708" 
d="M305 710q-47 0 -86.5 -33t-46.5 -79q-7 -45 22 -78t76 -33t87 33t47 78q7 46 -22.5 79t-76.5 33zM674 770l41 -26l-561 -760l-42 25zM558 267q-47 0 -86.5 -33t-46.5 -79q-7 -45 22 -78t76 -33t87 33t47 78q7 46 -22.5 79t-76.5 33zM315 770q72 0 116 -50.5t33 -121.5
t-71.5 -121t-131.5 -50t-115.5 50t-33.5 121t71 121.5t132 50.5zM568 327q72 0 116 -50.5t33 -121.5t-72 -121t-132 -50t-115 50t-33 121t71 121.5t132 50.5z" />
    <glyph glyph-name="ampersand" unicode="&#x26;" horiz-adv-x="692" 
d="M346 372l-10 -6q-3 -2 -20 -12.5t-23 -14t-22 -14t-23.5 -17t-20.5 -17t-19.5 -19.5t-15 -20t-12.5 -22t-6 -23q-9 -54 27.5 -96.5t90.5 -42.5q33 0 69.5 17t60 34.5t59.5 48.5zM385 490l13 8q4 3 21.5 15t24.5 17t20.5 16.5t20 20t13 21.5t8.5 26q7 39 -14.5 60.5
t-60.5 21.5q-35 0 -63 -22.5t-33 -57.5q-6 -38 30 -94zM592 0l-66 102q-118 -118 -245 -118q-96 0 -153.5 63t-41.5 159q10 65 50 109t113 91l53 34q-69 87 -57 165q12 76 68 120.5t132 44.5q72 0 116.5 -42.5t32.5 -114.5q-5 -30 -20.5 -57.5t-42.5 -52t-48.5 -40.5
t-55.5 -38l127 -190l104 102l51 -62l-110 -108l109 -167h-116z" />
    <glyph glyph-name="quotesingle" unicode="'" horiz-adv-x="277" 
d="M209 754h98l-70 -328h-62z" />
    <glyph glyph-name="parenleft" unicode="(" horiz-adv-x="292" 
d="M289 809l65 -55q-114 -182 -156 -446q-42 -267 15 -446l-83 -55q-36 103 -41 244.5t17 256.5q20 131 67 265t116 236z" />
    <glyph glyph-name="parenright" unicode=")" horiz-adv-x="292" 
d="M176 754l83 55q36 -102 41 -244t-16 -257q-21 -131 -68 -264.5t-116 -236.5l-65 55q115 181 157 446q42 268 -16 446z" />
    <glyph glyph-name="asterisk" unicode="*" horiz-adv-x="432" 
d="M303 754h69l-15 -95l89 48l26 -59l-93 -50l77 -50l-44 -58l-73 50l-16 -96h-69l16 97l-95 -49l-25 57l93 49l-76 50l40 57l81 -49z" />
    <glyph glyph-name="plus" unicode="+" 
d="M327 512h86l-34 -213h213l-13 -86h-213l-34 -213h-86l34 213h-213l13 86h213z" />
    <glyph glyph-name="comma" unicode="," horiz-adv-x="289" 
d="M183 119l73 -31l-175 -267l-52 23z" />
    <glyph glyph-name="hyphen" unicode="-" horiz-adv-x="332" 
d="M114 358h219l-12 -75h-219z" />
    <glyph glyph-name="period" unicode="." horiz-adv-x="289" 
d="M161 100q24 0 38.5 -17.5t10.5 -40.5q-4 -24 -24 -41t-44 -17t-38 17t-10 41q4 23 23.5 40.5t43.5 17.5z" />
    <glyph glyph-name="slash" unicode="/" horiz-adv-x="551" 
d="M585 868l67 -32l-569 -962l-66 32z" />
    <glyph glyph-name="zero" unicode="0" 
d="M286 -16q-56 0 -98 26t-63.5 68t-34.5 94t-11 105t7 100q10 63 34.5 127.5t63 126t98.5 100.5t129 39q56 0 98 -26t64 -67.5t35 -94t11 -105t-7 -100.5q-10 -62 -35 -127t-64 -126.5t-98.5 -100.5t-128.5 -39zM398 690q-48 0 -89 -33.5t-67.5 -84.5t-42.5 -100.5
t-23 -93.5q-9 -39 -6.5 -92.5t11.5 -101.5t40 -82t79 -34t89 33t67 84t42.5 100t23.5 93q5 34 6.5 72.5t-4.5 82t-19 78t-40.5 57t-66.5 22.5z" />
    <glyph glyph-name="one" unicode="1" 
d="M360 668h-131l65 86h169l-119 -754h-90z" />
    <glyph glyph-name="two" unicode="2" 
d="M242 86h304l-14 -86h-487l394 405q81 83 89 135q9 59 -29 101.5t-97 42.5q-57 0 -105 -40t-62 -98h-94q28 102 101 163t174 61q98 0 157.5 -64.5t44.5 -161.5q-14 -86 -80 -155z" />
    <glyph glyph-name="three" unicode="3" 
d="M332 360l12 78q148 0 168 121q9 57 -22.5 93t-88.5 36q-51 0 -89 -29.5t-53 -78.5h-93q28 93 93 141.5t158 48.5t147 -55.5t39 -147.5q-19 -116 -123 -170q99 -51 77 -187q-16 -103 -94.5 -164.5t-182.5 -61.5q-91 0 -149 56t-49 146h91q-1 -54 35 -87t92 -33
q62 0 110 43t58 105q11 71 -27 111t-109 35z" />
    <glyph glyph-name="four" unicode="4" 
d="M499 192h86l-13 -82h-86l-17 -110h-90l17 110h-372l569 676zM409 192l50 311h-2l-262 -311h214z" />
    <glyph glyph-name="five" unicode="5" 
d="M634 668h-237l-72 -155l54 3q106 0 161.5 -78t38.5 -186q-18 -117 -111 -192.5t-211 -75.5q-71 0 -128.5 35.5t-80.5 96.5l81 66q10 -47 54 -79.5t95 -32.5q76 0 137.5 54.5t73.5 130.5q12 73 -33 126t-118 53q-88 0 -152 -67h-18l177 387h302z" />
    <glyph glyph-name="six" unicode="6" 
d="M501 770l61 -46l-244 -272l1 -2q39 18 77 18q91 0 143.5 -71.5t37.5 -164.5q-16 -103 -101 -175.5t-188 -72.5q-99 0 -163.5 71.5t-48.5 169.5q14 89 113 199zM301 68q64 0 119 46t65 108q11 68 -30.5 115t-103.5 47t-118.5 -48t-66.5 -109q-10 -65 30 -112t105 -47z" />
    <glyph glyph-name="seven" unicode="7" 
d="M543 668h-390l13 86h543l-592 -770l-65 45z" />
    <glyph glyph-name="eight" unicode="8" 
d="M345 352q-58 0 -108.5 -41.5t-60.5 -100.5q-9 -56 29.5 -99t94.5 -43t107.5 43t60.5 99q10 59 -27.5 100.5t-95.5 41.5zM86 210q10 63 49 112t99 69q-90 56 -72 169q14 91 86 150.5t163 59.5t144 -59.5t39 -150.5q-9 -55 -42 -98.5t-84 -70.5q54 -20 77 -69t13 -112
q-16 -102 -94.5 -164t-177.5 -62t-157.5 62t-42.5 164zM398 690q-52 0 -96 -38.5t-52 -91.5q-8 -45 26 -86.5t81 -41.5t94 41t55 87q8 54 -24.5 92t-83.5 38z" />
    <glyph glyph-name="nine" unicode="9" 
d="M210 -16l-60 47l244 271l-2 2q-31 -14 -75 -14q-92 0 -144.5 70t-37.5 162q16 103 100.5 175.5t187.5 72.5q99 0 164 -71.5t49 -169.5q-14 -90 -114 -199zM361 370q70 0 122.5 47t62.5 111q9 61 -29.5 109.5t-99.5 48.5q-68 0 -124.5 -47t-66.5 -111q-11 -65 31.5 -111.5
t103.5 -46.5z" />
    <glyph glyph-name="colon" unicode=":" horiz-adv-x="289" 
d="M161 100q24 0 38.5 -17.5t10.5 -40.5q-4 -24 -24 -41t-44 -17t-38 17t-10 41q4 23 23.5 40.5t43.5 17.5zM221 482q24 0 38.5 -17.5t10.5 -40.5q-4 -24 -23.5 -41t-43.5 -17t-38.5 17t-10.5 41q4 23 23.5 40.5t43.5 17.5z" />
    <glyph glyph-name="semicolon" unicode=";" horiz-adv-x="289" 
d="M175 119l73 -31l-175 -267l-52 23zM268 482q24 0 38.5 -17.5t10.5 -40.5q-4 -24 -23.5 -41t-43.5 -17t-38.5 17t-10.5 41q4 23 23.5 40.5t43.5 17.5z" />
    <glyph glyph-name="less" unicode="&#x3c;" 
d="M624 498l-15 -94l-407 -148l360 -148l-15 -94l-479 207l11 70z" />
    <glyph glyph-name="equal" unicode="=" 
d="M94 385h512l-14 -86h-512zM67 213h512l-14 -86h-512z" />
    <glyph glyph-name="greater" unicode="&#x3e;" 
d="M97 404l15 94l479 -207l-11 -70l-545 -207l15 94l408 148z" />
    <glyph glyph-name="question" unicode="?" horiz-adv-x="453" 
d="M356 345h91q-7 -64 -65 -112.5t-123 -48.5q-67 0 -106.5 46.5t-29.5 113.5q11 64 48.5 94.5t101.5 52.5q5 2 24 8.5t24.5 8.5t21.5 8.5t22 11t17 12.5t15.5 15.5t9.5 18t7 22.5q7 41 -15 65t-63 24q-35 0 -64.5 -25.5t-34.5 -60.5q-1 -7 1 -32h-94l3 33q7 71 70 120.5
t136 49.5q76 0 120 -51t32 -126q-12 -77 -74 -124q-34 -27 -133 -56q-76 -23 -84 -73q-5 -30 11.5 -51t46.5 -21q32 0 55.5 22.5t28.5 54.5zM246 100q24 0 38.5 -17.5t10.5 -40.5q-4 -24 -24 -41t-44 -17t-38 17t-10 41q4 23 23.5 40.5t43.5 17.5z" />
    <glyph glyph-name="at" unicode="@" horiz-adv-x="800" 
d="M562 372q17 60 -6 93.5t-76 33.5q-58 0 -102.5 -47.5t-53.5 -105.5q-8 -46 14.5 -80t67.5 -34q62 0 100.5 39.5t55.5 100.5zM608 506l24 62h71l-91 -257q-22 -62 -15 -77q5 -8 16 -9q36 0 81 60t57 132q20 124 -45 198.5t-182 74.5q-126 0 -227 -91.5t-121 -221.5
q-21 -135 57 -224t209 -89q130 0 194 48l65 -60q-69 -34 -130 -51t-150 -17q-163 0 -257.5 112t-67.5 281q26 167 154.5 280t289.5 113q140 0 221 -87q96 -96 76 -230q-20 -130 -96 -212q-42 -45 -86 -67t-82 -20q-44 2 -44 62q-71 -62 -146 -62q-67 0 -109 54.5t-29 130.5
q15 95 83 166.5t158 71.5q78 0 122 -71z" />
    <glyph glyph-name="A" unicode="A" horiz-adv-x="703" 
d="M555 189h-346l-116 -189h-101l484 786l236 -786h-101zM530 275l-86 305l-182 -305h268z" />
    <glyph glyph-name="B" unicode="B" horiz-adv-x="535" 
d="M264 670l-39 -250h24q77 0 123 26t58 100q6 38 -2 63.5t-29.5 38.5t-46.5 17.5t-62 4.5h-26zM213 345l-42 -261h72q178 0 199 133q6 38 -7 64.5t-41 39.5t-58 18.5t-65 5.5h-58zM64 0l119 754h92q58 0 102.5 -9t82 -30.5t53.5 -64t6 -103.5q-7 -43 -35.5 -84.5
t-68.5 -58.5v-2q63 -12 97 -68t23 -123q-11 -72 -57.5 -121t-107 -69.5t-130.5 -20.5h-176z" />
    <glyph glyph-name="C" unicode="C" horiz-adv-x="661" 
d="M735 719l-17 -109q-72 74 -188 74q-125 0 -225.5 -90.5t-120.5 -217.5q-20 -125 51 -215.5t196 -90.5q115 0 213 78l-17 -111q-100 -53 -207 -53q-162 0 -259 113t-72 276q26 167 161.5 282t302.5 115q106 0 182 -51z" />
    <glyph glyph-name="D" unicode="D" horiz-adv-x="665" 
d="M64 0l119 754h156q88 0 160 -23.5t123.5 -68.5t73.5 -117.5t7 -163.5q-29 -185 -163.5 -283t-322.5 -98h-153zM264 668l-92 -582h33q76 0 140 15t120 48t93.5 91t50.5 137q13 80 -6.5 138t-65 90.5t-105 47.5t-135.5 15h-33z" />
    <glyph glyph-name="E" unicode="E" horiz-adv-x="521" 
d="M72 0l119 754h405l-13 -86h-311l-34 -211h302l-13 -86h-302l-45 -285h311l-14 -86h-405z" />
    <glyph glyph-name="F" unicode="F" horiz-adv-x="474" 
d="M542 668h-271l-34 -212h262l-13 -86h-262l-59 -370h-94l119 754h365z" />
    <glyph glyph-name="G" unicode="G" horiz-adv-x="780" 
d="M520 380h299l-5 -30q-24 -157 -141 -261.5t-274 -104.5t-250.5 116.5t-68.5 274.5q26 163 159 279t295 116q89 0 164.5 -38.5t119.5 -107.5l-76 -63q-32 56 -91 89.5t-127 33.5q-126 0 -227.5 -89.5t-121.5 -216.5q-19 -121 52.5 -214.5t191.5 -93.5q90 0 177.5 67
t105.5 157h-195z" />
    <glyph glyph-name="H" unicode="H" horiz-adv-x="675" 
d="M229 450h359l48 304h94l-119 -754h-94l57 362h-359l-57 -362h-94l119 754h94z" />
    <glyph glyph-name="I" unicode="I" horiz-adv-x="232" 
d="M282 754l-119 -754h-94l119 754h94z" />
    <glyph glyph-name="J" unicode="J" horiz-adv-x="362" 
d="M328 754h94l-75 -479q-10 -61 -25 -107.5t-42.5 -91t-74 -68.5t-109.5 -24q-62 0 -112 33l59 80q30 -25 71 -25q26 0 46.5 8.5t35 28t23.5 35t16.5 46t10 42.5t7.5 43z" />
    <glyph glyph-name="K" unicode="K" horiz-adv-x="600" 
d="M234 427l371 327h123l-392 -339l279 -415h-127l-228 351l-44 -36l-50 -315h-94l119 754h94z" />
    <glyph glyph-name="L" unicode="L" horiz-adv-x="385" 
d="M285 754l-105 -668h229l-14 -86h-323l119 754h94z" />
    <glyph glyph-name="M" unicode="M" horiz-adv-x="851" 
d="M423 -16l-144 514h-2l-167 -498h-97l278 786l165 -594l353 594l30 -786h-97l-9 498h-2z" />
    <glyph glyph-name="N" unicode="N" horiz-adv-x="785" 
d="M63 0l125 790l472 -593l88 557h94l-124 -785l-472 593l-89 -562h-94z" />
    <glyph glyph-name="O" unicode="O" horiz-adv-x="828" 
d="M536 770q162 0 260 -115.5t73 -277.5q-27 -167 -160 -280t-298 -113t-262 113t-70 280q17 106 84.5 196.5t167 143.5t205.5 53zM425 72q123 0 226 88.5t124 216.5q20 127 -51.5 216t-201.5 89q-131 0 -230 -89t-119 -216q-21 -128 54 -216.5t198 -88.5z" />
    <glyph glyph-name="P" unicode="P" horiz-adv-x="495" 
d="M216 316l-50 -316h-94l119 754h108q167 0 227 -54.5t43 -163.5q-18 -112 -100 -166t-199 -54h-54zM272 670l-43 -270h30q41 0 73.5 5t65.5 18.5t54.5 42.5t28.5 72q5 34 -3.5 59t-25.5 38.5t-45 21.5t-53 10.5t-57 2.5h-25z" />
    <glyph glyph-name="Q" unicode="Q" horiz-adv-x="828" 
d="M805 -16h-114l-54 67q-108 -67 -226 -67q-165 0 -262 113t-70 280q17 106 84.5 196.5t167 143.5t205.5 53q162 0 260 -115.5t73 -277.5q-13 -80 -55.5 -152.5t-106.5 -125.5zM553 284l100 -118q48 37 80 95.5t42 115.5q20 127 -51.5 216t-201.5 89q-131 0 -230 -89
t-119 -216q-21 -128 54 -216.5t198 -88.5q83 0 157 43l-146 169h117z" />
    <glyph glyph-name="R" unicode="R" horiz-adv-x="543" 
d="M355 328l186 -328h-114l-171 319h-39l-51 -319h-94l119 754h114q43 0 69.5 -1.5t62.5 -9.5t62 -24q42 -27 60.5 -76t9.5 -104q-13 -82 -72.5 -141.5t-141.5 -69.5zM272 670l-43 -273h30q41 0 73.5 5t65.5 18.5t54.5 42.5t28.5 72q6 42 -7.5 70.5t-44 41.5t-61.5 18t-71 5
h-25z" />
    <glyph glyph-name="S" unicode="S" horiz-adv-x="537" 
d="M586 656l-82 -45q-32 71 -110 71q-48 0 -91.5 -30t-51.5 -77q-10 -68 88 -108l51 -21q84 -35 124.5 -87t26.5 -140q-16 -102 -96.5 -168.5t-182.5 -66.5q-91 0 -146 59.5t-53 151.5l98 20q-10 -62 25.5 -102.5t97.5 -40.5q60 0 106.5 43.5t56.5 103.5q9 55 -21 86.5
t-87 56.5l-48 22q-46 21 -75 42.5t-48 60t-11 88.5q14 88 88.5 141.5t164.5 53.5q129 0 176 -114z" />
    <glyph glyph-name="T" unicode="T" horiz-adv-x="456" 
d="M381 668l-106 -668h-94l106 668h-179l13 86h452l-13 -86h-179z" />
    <glyph glyph-name="U" unicode="U" horiz-adv-x="669" 
d="M178 754h94l-70 -445q-39 -237 144 -237q181 0 220 237l70 445h94l-75 -477q-20 -128 -108 -210.5t-215 -82.5t-188 82.5t-41 210.5z" />
    <glyph glyph-name="V" unicode="V" horiz-adv-x="640" 
d="M215 754l137 -558l312 558h103l-452 -794l-203 794h103z" />
    <glyph glyph-name="W" unicode="W" horiz-adv-x="1027" 
d="M209 754l126 -540l301 556l125 -556l296 540h102l-437 -784l-125 553l-301 -553l-189 784h102z" />
    <glyph glyph-name="X" unicode="X" horiz-adv-x="574" 
d="M300 395l-152 359h107l111 -275l207 275h107l-273 -359l166 -395h-105l-129 309l-234 -309h-105z" />
    <glyph glyph-name="Y" unicode="Y" horiz-adv-x="573" 
d="M292 328l-179 426h108l134 -322l236 322h108l-313 -426l-52 -328h-94z" />
    <glyph glyph-name="Z" unicode="Z" horiz-adv-x="552" 
d="M176 86h382l-14 -86h-535l488 668h-328l13 86h481z" />
    <glyph glyph-name="bracketleft" unicode="[" horiz-adv-x="311" 
d="M268 725l-132 -834h98l-14 -84h-190l159 1002h190l-13 -84h-98z" />
    <glyph glyph-name="backslash" unicode="\" horiz-adv-x="551" 
d="M168 868h84l267 -868h-84z" />
    <glyph glyph-name="bracketright" unicode="]" horiz-adv-x="311" 
d="M141 -109l132 834h-98l13 84h190l-159 -1002h-190l14 84h98z" />
    <glyph glyph-name="asciicircum" unicode="^" 
d="M82 308l270 446h112l130 -446h-94l-105 362l-220 -362h-93z" />
    <glyph glyph-name="underscore" unicode="_" horiz-adv-x="500" 
d="M488 -75l-8 -50h-500l8 50h500z" />
    <glyph glyph-name="grave" unicode="`" horiz-adv-x="360" 
d="M185 690l90 44l99 -166l-48 -27z" />
    <glyph glyph-name="a" unicode="a" horiz-adv-x="556" 
d="M274 64q71 0 119 49t60 121q11 71 -22 119.5t-103 48.5q-67 0 -115.5 -49.5t-59.5 -118.5q-11 -70 21 -120t100 -50zM575 468l-74 -468h-90l12 73h-2q-76 -89 -174 -89q-103 0 -151.5 74t-31.5 179q16 100 88 172.5t171 72.5q102 0 148 -92h2l12 78h90z" />
    <glyph glyph-name="b" unicode="b" horiz-adv-x="556" 
d="M298 64q71 0 119 49t60 121q11 71 -22 119.5t-103 48.5q-67 0 -115.5 -49.5t-59.5 -118.5q-11 -70 21 -120t100 -50zM55 0l137 868h90l-75 -478h2q76 92 177 92q98 0 148 -72.5t34 -172.5q-17 -106 -89 -179.5t-176 -73.5q-48 0 -85.5 24t-58.5 65h-2l-12 -73h-90z" />
    <glyph glyph-name="c" unicode="c" horiz-adv-x="441" 
d="M477 451l-18 -116q-45 63 -124 63q-65 0 -118 -49t-64 -115q-11 -72 27 -119t109 -47q73 0 138 62l-19 -115q-62 -31 -134 -31q-104 0 -166 71t-46 175q17 108 102 180t194 72q72 0 119 -31z" />
    <glyph glyph-name="d" unicode="d" horiz-adv-x="556" 
d="M274 64q71 0 119 49t60 121q11 71 -22 119.5t-103 48.5q-67 0 -115.5 -49.5t-59.5 -118.5q-11 -70 21 -120t100 -50zM411 0l12 73h-2q-76 -89 -174 -89q-104 0 -152 73.5t-31 179.5q16 100 88 172.5t170 72.5q103 0 149 -92h2l75 478h90l-137 -868h-90z" />
    <glyph glyph-name="e" unicode="e" horiz-adv-x="488" 
d="M508 219h-357q-9 -63 22.5 -109t93.5 -46q49 0 84.5 22.5t70.5 68.5l69 -43q-42 -60 -105.5 -94t-132.5 -34q-105 0 -156 70t-35 176q18 112 88 182t180 70q107 0 152 -69.5t28 -179.5zM166 287h262q1 54 -28 85.5t-82 31.5q-52 0 -93.5 -33t-58.5 -84z" />
    <glyph glyph-name="f" unicode="f" horiz-adv-x="275" 
d="M431 868l-14 -91q-40 19 -57 19q-18 0 -32.5 -9.5t-22.5 -21.5t-14.5 -32t-9 -32.5t-5.5 -31.5l-32 -201h124l-13 -84h-124l-61 -384h-90l61 384h-41l13 84h41l36 228q29 184 180 184q34 0 61 -12z" />
    <glyph glyph-name="g" unicode="g" horiz-adv-x="555" 
d="M273 64q71 0 119 49t60 121q11 71 -22 119.5t-103 48.5q-67 0 -115.5 -49.5t-59.5 -118.5q-11 -70 21 -120t100 -50zM574 468l-73 -459q-21 -133 -82 -205t-189 -72q-99 0 -153 57.5t-40 154.5h90q-10 -62 23 -97t96 -35q77 0 112.5 45t48.5 127l15 89h-2
q-76 -89 -174 -89q-104 0 -152 73.5t-31 179.5q16 100 88 172.5t170 72.5q104 0 148 -94h2l13 80h90z" />
    <glyph glyph-name="h" unicode="h" horiz-adv-x="523" 
d="M199 868h90l-73 -463h2q26 37 67.5 57t85.5 20q92 0 120.5 -54t13.5 -149l-44 -279h-90l42 268q11 69 -3 101.5t-78 32.5q-33 0 -58.5 -12.5t-39 -27.5t-24.5 -45.5t-14.5 -48.5t-9.5 -53l-34 -215h-90z" />
    <glyph glyph-name="i" unicode="i" horiz-adv-x="254" 
d="M246 468l-74 -468h-90l74 468h90zM245 745q26 0 41 -18.5t11 -44.5q-4 -25 -25 -43t-47 -18q-25 0 -40.5 17.5t-11.5 43.5t25.5 44.5t46.5 18.5z" />
    <glyph glyph-name="j" unicode="j" horiz-adv-x="254" 
d="M246 468l-116 -736h-90l116 736h90zM245 745q26 0 41 -18.5t11 -44.5q-4 -25 -25 -43t-47 -18q-25 0 -40.5 17.5t-11.5 43.5t25.5 44.5t46.5 18.5z" />
    <glyph glyph-name="k" unicode="k" horiz-adv-x="462" 
d="M295 868l-91 -576l204 176h119l-231 -194l177 -274h-117l-133 213l-36 -31l-29 -182h-90l137 868h90z" />
    <glyph glyph-name="l" unicode="l" horiz-adv-x="222" 
d="M293 868l-137 -868h-90l137 868h90z" />
    <glyph glyph-name="m" unicode="m" horiz-adv-x="767" 
d="M223 468l-9 -59h2q25 32 61.5 52.5t73.5 20.5q87 0 122 -83q28 38 70.5 60.5t86.5 22.5q155 0 123 -202l-44 -280h-90l42 265q3 32 4.5 62.5t-15.5 52.5t-54 22q-34 0 -58.5 -15.5t-39 -44.5t-21 -53.5t-12.5 -58.5l-36 -230h-90l39 248q5 30 6.5 51t-2 48t-20 41
t-45.5 14q-34 0 -59 -15.5t-39 -44t-21 -53.5t-13 -59l-36 -230h-90l74 468h90z" />
    <glyph glyph-name="n" unicode="n" horiz-adv-x="523" 
d="M226 468l-10 -63h2q26 37 67.5 57t85.5 20q92 0 120.5 -54t13.5 -149l-44 -279h-90l42 268q11 69 -3 101.5t-78 32.5q-33 0 -58.5 -12.5t-39 -27.5t-24.5 -45.5t-14.5 -48.5t-9.5 -53l-34 -215h-90l74 468h90z" />
    <glyph glyph-name="o" unicode="o" horiz-adv-x="540" 
d="M346 482q105 0 166 -72t45 -177t-100.5 -177t-189.5 -72t-165.5 71.5t-44.5 177.5q16 105 100 177t189 72zM333 396q-67 0 -121 -48t-65 -115q-11 -66 28.5 -114.5t105.5 -48.5t120.5 48.5t65.5 114.5q11 67 -28.5 115t-105.5 48z" />
    <glyph glyph-name="p" unicode="p" horiz-adv-x="556" 
d="M298 64q71 0 119 49t60 121q11 71 -22 119.5t-103 48.5q-67 0 -115.5 -49.5t-59.5 -118.5q-11 -70 21 -120t100 -50zM219 468l-12 -78h2q76 92 177 92q98 0 148 -72.5t34 -172.5q-17 -106 -89 -179.5t-176 -73.5q-48 0 -85.5 24t-58.5 65h-2l-54 -341h-90l116 736h90z
" />
    <glyph glyph-name="q" unicode="q" horiz-adv-x="556" 
d="M274 64q71 0 119 49t60 121q11 71 -22 119.5t-103 48.5q-67 0 -115.5 -49.5t-59.5 -118.5q-11 -70 21 -120t100 -50zM575 468l-116 -736h-90l54 341h-2q-76 -89 -174 -89q-104 0 -152 73.5t-31 179.5q16 100 88 172.5t170 72.5q103 0 149 -92h2l12 78h90z" />
    <glyph glyph-name="r" unicode="r" horiz-adv-x="351" 
d="M232 468l-12 -76h3q51 90 142 90q38 0 71 -23l-54 -82q-19 19 -52 19q-35 0 -60.5 -14.5t-40 -41t-22.5 -52t-13 -58.5l-36 -230h-90l74 468h90z" />
    <glyph glyph-name="s" unicode="s" horiz-adv-x="384" 
d="M386 400l-79 -39q-5 18 -19.5 29.5t-33.5 11.5t-36 -13.5t-21 -32.5q-1 -9 0.5 -16.5t7.5 -14t11 -11.5t16.5 -11.5t17.5 -10t21.5 -10.5t21.5 -10q47 -23 71 -53t16 -80q-10 -66 -65 -110.5t-121 -44.5q-52 0 -93 28.5t-52 76.5l83 35q22 -60 75 -60q29 0 53 18.5
t29 47.5q3 17 -3.5 28t-21.5 23l-81 47q-42 25 -60 49.5t-11 68.5q9 57 55.5 96.5t103.5 39.5q42 0 72 -21.5t43 -60.5z" />
    <glyph glyph-name="t" unicode="t" horiz-adv-x="240" 
d="M226 384l-61 -384h-90l61 384h-49l13 84h49l28 179h90l-28 -179h88l-13 -84h-88z" />
    <glyph glyph-name="u" unicode="u" horiz-adv-x="512" 
d="M132 468h90l-41 -259q-23 -141 86 -141q61 0 90.5 38t39.5 103l41 259h90l-42 -269q-16 -100 -74.5 -157.5t-158.5 -57.5t-139.5 57.5t-23.5 157.5z" />
    <glyph glyph-name="v" unicode="v" horiz-adv-x="445" 
d="M162 468l88 -292l181 292h101l-313 -484l-158 484h101z" />
    <glyph glyph-name="w" unicode="w" horiz-adv-x="718" 
d="M160 468l89 -298l189 324l86 -324l183 298h102l-315 -484l-87 313l-188 -313l-161 484h102z" />
    <glyph glyph-name="x" unicode="x" horiz-adv-x="489" 
d="M235 254l-134 214h106l87 -151l145 151h109l-206 -214l161 -254h-105l-124 190l-179 -190h-109z" />
    <glyph glyph-name="y" unicode="y" horiz-adv-x="484" 
d="M214 80l-153 388h105l111 -297l194 297h101l-495 -736h-102z" />
    <glyph glyph-name="z" unicode="z" horiz-adv-x="495" 
d="M190 84h304l-13 -84h-479l378 384h-263l13 84h438z" />
    <glyph glyph-name="braceleft" unicode="{" horiz-adv-x="334" 
d="M91 271l11 73q82 33 99 151l29 182q9 55 44.5 93.5t61.5 38.5h78l-13 -84h-40q-15 0 -23.5 -10t-11.5 -20.5t-6 -31.5l-29 -184q-8 -52 -33 -94t-40 -55t-30 -23q11 -8 22.5 -22t23 -55.5t3.5 -93.5l-30 -184q-6 -25 -2.5 -43.5t24.5 -18.5h40l-14 -84h-78
q-26 0 -49 38.5t-15 93.5l29 182q19 118 -51 151z" />
    <glyph glyph-name="bar" unicode="|" horiz-adv-x="404" 
d="M227 892h72v-1189h-72v1189z" />
    <glyph glyph-name="braceright" unicode="}" horiz-adv-x="334" 
d="M340 344l-11 -73q-80 -33 -99 -151l-29 -182q-8 -55 -44 -93.5t-62 -38.5h-78l14 84h40q15 0 23.5 10t11 20t5.5 32l30 184q8 52 32 93t41 56t30 22q-8 6 -15.5 14.5t-20.5 31.5t-15 52t2 74l29 184q6 25 3 43.5t-24 18.5h-40l13 84h78q26 0 49.5 -38.5t14.5 -93.5
l-29 -182q-17 -118 51 -151z" />
    <glyph glyph-name="asciitilde" unicode="~" 
d="M531 334l59 -50q-87 -122 -171 -122q-40 0 -107 51q-6 5 -18.5 14.5t-19 14.5t-15.5 11t-16 8.5t-13 2.5q-42 0 -105 -82l-56 45q59 70 91 93q41 30 81 30q55 0 114 -51q6 -5 16.5 -14.5t16.5 -14.5t14 -11t15 -8.5t14 -2.5q35 0 91 75q6 7 9 11z" />
    <glyph glyph-name="uni00A0" unicode="&#xa0;" horiz-adv-x="289" 
 />
    <glyph glyph-name="exclamdown" unicode="&#xa1;" horiz-adv-x="321" 
d="M241 508q24 0 38.5 -17.5t10.5 -40.5q-4 -24 -23.5 -41t-43.5 -17t-38.5 17t-10.5 41q4 23 23.5 40.5t43.5 17.5zM167 323h90l-92 -581h-90z" />
    <glyph glyph-name="cent" unicode="&#xa2;" 
d="M468 704l-13 -76q73 -3 118 -31l-19 -115h-2q-37 61 -110 63l-52 -328q75 10 132 62l-18 -117q-55 -24 -110 -28l-17 -1l-13 -85h-48l14 89q-89 14 -137 81t-33 159q14 94 83.5 164.5t163.5 84.5l13 78h48zM343 220l50 319q-51 -6 -93.5 -56t-51.5 -102q-9 -56 17 -103
t78 -58z" />
    <glyph glyph-name="sterling" unicode="&#xa3;" 
d="M87 -16l-72 40q39 54 78 82.5t94 30.5q45 99 18 164h-129l9 58h100q-41 108 -30 180q15 95 101.5 163t182.5 68q105 0 159.5 -64.5t43.5 -169.5l-95 -34l4 28q10 63 -24.5 107.5t-97.5 44.5q-61 0 -118.5 -47.5t-66.5 -103.5q-2 -25 -1.5 -39.5t7 -36t11.5 -34t14 -32
t13 -30.5h148l-9 -58h-124q12 -83 -28 -172l70 -26q6 -2 26 -11t35 -13.5t29 -4.5q19 0 38.5 13.5t29.5 25.5t26 35l68 -46q-30 -53 -75.5 -85.5t-99.5 -32.5q-47 0 -125 33q-75 32 -111 32q-62 0 -99 -65z" />
    <glyph glyph-name="currency" unicode="&#xa4;" 
d="M569 546l51 -60l-48 -44q32 -66 20 -142q-14 -78 -65 -142l34 -44l-69 -60l-39 44q-71 -48 -156 -48t-140 48l-53 -44l-51 60l48 44q-32 69 -19 142q12 75 64 142l-34 44l69 60l40 -44q70 48 155 48t141 -48zM310 130q72 0 131 50t71 120q12 74 -31 122t-118 48
q-76 0 -133.5 -48t-67.5 -122q-10 -70 33 -120t115 -50z" />
    <glyph glyph-name="yen" unicode="&#xa5;" 
d="M377 260l-41 -260h-94l41 260h-236l9 58h236l2 10l-39 94h-182l9 58h148l-115 274h108l134 -322l236 322h108l-201 -274h148l-9 -58h-181l-70 -94l-2 -10h236l-9 -58h-236z" />
    <glyph glyph-name="brokenbar" unicode="&#xa6;" horiz-adv-x="404" 
d="M227 803h72v-416h-72v416zM227 208h72v-415h-72v415z" />
    <glyph glyph-name="section" unicode="&#xa7;" 
d="M267 335l161 -87q29 17 50.5 45.5t26.5 59.5q4 22 -5.5 40t-22 27t-34.5 21l-169 93q-67 -39 -77 -106q-4 -24 7.5 -43t24.5 -27.5t38 -22.5zM340 192l-130 69q-31 17 -47 27.5t-34 29.5t-23 43t0 57q15 91 122 162q-36 50 -27 111q12 75 78 126t141 51q80 0 130 -45.5
t43 -122.5h-87q4 41 -25.5 65t-72.5 24q-42 0 -76 -29t-41 -71q-5 -36 14 -59t55 -42l123 -67q38 -21 59.5 -35.5t41 -45.5t13.5 -68q-8 -49 -39.5 -94t-76.5 -75q45 -49 34 -122q-14 -86 -85 -139.5t-159 -53.5q-99 0 -153 58t-39 157l3 15h89q-12 -62 19 -105t93 -43
q49 0 92 32t50 81q3 21 -2.5 38t-21.5 31t-27.5 21t-33.5 19z" />
    <glyph glyph-name="dieresis" unicode="&#xa8;" horiz-adv-x="470" 
d="M240 694q25 0 39.5 -17.5t10.5 -42.5t-24 -43t-45 -18t-40.5 17.5t-11.5 43.5q5 25 25.5 42.5t45.5 17.5zM451 694q25 0 39.5 -17.5t10.5 -42.5t-24 -43t-45 -18t-40.5 17.5t-11.5 43.5q5 25 25.5 42.5t45.5 17.5z" />
    <glyph glyph-name="copyright" unicode="&#xa9;" horiz-adv-x="800" 
d="M397 -16q-165 0 -261 114.5t-70 278.5q25 164 158 278.5t298 114.5t261.5 -114.5t70.5 -278.5t-159 -278.5t-298 -114.5zM512 706q-136 0 -248 -95.5t-134 -233.5t60 -233.5t218 -95.5t248 95.5t134 233.5t-60 233.5t-218 95.5zM673 458h-61q-3 41 -32.5 63t-79.5 22
q-76 0 -122 -47.5t-56 -113.5q-12 -72 22 -118t107 -46q100 0 137 89h61q-20 -69 -79.5 -111t-129.5 -42q-98 0 -148 65t-35 161q16 100 85 163.5t169 63.5q70 0 114.5 -40t47.5 -109z" />
    <glyph glyph-name="ordfeminine" unicode="&#xaa;" horiz-adv-x="334" 
d="M249 519q46 0 77.5 29.5t37.5 72.5q7 43 -15 72t-68 29q-43 0 -74 -30t-38 -71q-6 -42 15 -72t65 -30zM443 761l-45 -280h-59l7 43h-2q-48 -53 -111 -53q-67 0 -99.5 44t-22.5 108q9 60 56 103.5t111 43.5t97 -55h1l8 46h59z" />
    <glyph glyph-name="guillemotleft" unicode="&#xab;" horiz-adv-x="523" 
d="M362 320l118 -191l-62 -41l-145 232l220 240l49 -41zM170 320l118 -191l-62 -41l-145 232l220 240l49 -41z" />
    <glyph glyph-name="logicalnot" unicode="&#xac;" 
d="M477 115l29 184h-426l14 86h512l-43 -270h-86z" />
    <glyph glyph-name="uni00AD" unicode="&#xad;" horiz-adv-x="332" 
d="M114 358h219l-12 -75h-219z" />
    <glyph glyph-name="registered" unicode="&#xae;" horiz-adv-x="800" 
d="M397 -16q-165 0 -261 114.5t-70 278.5q25 164 158 278.5t298 114.5t261.5 -114.5t70.5 -278.5t-159 -278.5t-298 -114.5zM512 706q-136 0 -248 -95.5t-134 -233.5t60 -233.5t218 -95.5t248 95.5t134 233.5t-60 233.5t-218 95.5zM525 357l79 -204h-73l-80 204h-82
l-33 -204h-64l70 442h186q68 0 106 -26.5t28 -90.5q-10 -60 -48.5 -89.5t-88.5 -31.5zM506 531h-110l-17 -110h68q7 0 26 -0.5t28.5 0t26 1.5t25.5 4t19.5 8.5t16.5 15t8 21.5q5 38 -18.5 49t-72.5 11z" />
    <glyph glyph-name="macron" unicode="&#xaf;" horiz-adv-x="500" 
d="M180 694h361l-11 -68h-361z" />
    <glyph glyph-name="degree" unicode="&#xb0;" horiz-adv-x="400" 
d="M448 620q-10 -62 -61 -106t-113 -44t-99 44t-27 106q9 61 60.5 105.5t113.5 44.5q61 0 98.5 -44t27.5 -106zM313 720q-42 0 -75.5 -29t-39.5 -71q-7 -43 17 -71.5t67 -28.5q42 0 75.5 28.5t40.5 71.5q7 42 -17.5 71t-67.5 29z" />
    <glyph glyph-name="plusminus" unicode="&#xb1;" 
d="M33 0l14 86h512l-14 -86h-512zM335 562h86l-27 -173h213l-14 -86h-213l-27 -173h-86l27 173h-213l14 86h213z" />
    <glyph glyph-name="twosuperior" unicode="&#xb2;" horiz-adv-x="346" 
d="M201 360h188l-9 -58h-317l253 243q45 43 51 81q6 33 -19.5 56.5t-58.5 23.5q-37 0 -65 -21t-35 -55h-67q16 61 63 97.5t113 36.5q64 0 103.5 -39t29.5 -97q-8 -56 -47 -93z" />
    <glyph glyph-name="threesuperior" unicode="&#xb3;" horiz-adv-x="346" 
d="M245 518l9 58q43 0 71.5 17t33.5 50t-17 51t-55 18q-32 0 -56 -14t-28 -42h-67q37 114 162 114q61 0 98 -33.5t28 -88.5q-11 -67 -83 -102q69 -32 56 -112q-10 -62 -62 -99t-120 -37q-59 0 -97 33.5t-32 88.5h64q-1 -33 19.5 -48.5t59.5 -15.5q37 0 67.5 22t36.5 58
q6 38 -19.5 61t-68.5 21z" />
    <glyph glyph-name="acute" unicode="&#xb4;" horiz-adv-x="360" 
d="M317 734l76 -44l-187 -149l-40 27z" />
    <glyph glyph-name="mu" unicode="&#xb5;" horiz-adv-x="512" 
d="M132 468h90l-41 -259q-23 -141 86 -141q61 0 90.5 38t39.5 103l41 259h90l-42 -269q-16 -100 -74.5 -157.5t-158.5 -57.5q-55 0 -101 44l-46 -296h-90z" />
    <glyph glyph-name="paragraph" unicode="&#xb6;" 
d="M657 754l-13 -84h-61l-130 -823h-84l130 823h-62l-130 -823h-84l69 436q-86 0 -133.5 57t-38.5 157q8 95 84 176t171 81h282z" />
    <glyph glyph-name="periodcentered" unicode="&#xb7;" horiz-adv-x="289" 
d="M195 314q24 0 38 -17t11 -41q-5 -24 -24.5 -41t-43.5 -17t-38 17t-10 41q3 23 23 40.5t44 17.5z" />
    <glyph glyph-name="cedilla" unicode="&#xb8;" horiz-adv-x="330" 
d="M237 -46l-127 -135l-48 27l108 137z" />
    <glyph glyph-name="onesuperior" unicode="&#xb9;" horiz-adv-x="346" 
d="M261 696h-86l43 58h116l-71 -452h-64z" />
    <glyph glyph-name="ordmasculine" unicode="&#xba;" horiz-adv-x="324" 
d="M284 770q69 0 109 -43.5t30 -106.5t-64 -106t-122 -43t-108.5 43t-30.5 106q10 64 64 107t122 43zM276 718q-43 0 -77.5 -28.5t-41.5 -69.5q-6 -39 19.5 -68t68.5 -29t78 29t41 68q7 41 -19 69.5t-69 28.5z" />
    <glyph glyph-name="guillemotright" unicode="&#xbb;" horiz-adv-x="523" 
d="M83 129l180 191l-118 199l63 41l144 -240l-219 -232zM275 129l180 191l-118 199l63 41l144 -240l-219 -232z" />
    <glyph glyph-name="onequarter" unicode="&#xbc;" horiz-adv-x="867" 
d="M798 124h49l-10 -58h-49l-10 -66h-64l10 66h-243l372 407zM734 124l26 164h-3l-149 -164h126zM236 696h-86l43 58h116l-71 -452h-64zM753 770l47 -26l-561 -760l-46 28z" />
    <glyph glyph-name="onehalf" unicode="&#xbd;" horiz-adv-x="867" 
d="M174 302l62 394h-86l43 58h116l-71 -452h-64zM648 58h188l-9 -58h-317l253 243q46 44 51 81q6 33 -19.5 56.5t-58.5 23.5q-37 0 -65 -21t-35 -55h-67q17 61 63.5 97.5t112.5 36.5q63 0 103 -39t31 -97q-10 -57 -48 -93zM701 770l47 -26l-561 -760l-46 28z" />
    <glyph glyph-name="threequarters" unicode="&#xbe;" horiz-adv-x="867" 
d="M798 124h49l-10 -58h-49l-10 -66h-64l10 66h-243l372 407zM734 124l26 164h-3l-149 -164h126zM266 518l9 58q43 0 71.5 17t33.5 50t-17 51t-55 18q-32 0 -56 -14t-28 -42h-67q37 114 162 114q61 0 98 -33.5t28 -88.5q-11 -67 -83 -102q69 -32 56 -112q-10 -62 -62 -99
t-120 -37q-59 0 -97 33.5t-32 88.5h64q-1 -33 19.5 -48.5t59.5 -15.5q37 0 67.5 22t36.5 58q6 38 -19.5 61t-68.5 21zM809 770l47 -26l-561 -760l-46 28z" />
    <glyph glyph-name="questiondown" unicode="&#xbf;" horiz-adv-x="453" 
d="M177 157h-91q7 64 64.5 112.5t122.5 48.5q67 0 106.5 -46.5t29.5 -113.5q-5 -34 -19 -59t-37 -42t-43 -26t-50 -20q-5 -2 -21.5 -7.5t-22 -7.5t-19.5 -7.5t-20 -9t-16.5 -10t-15.5 -12.5t-11.5 -14t-10 -17t-5.5 -20q-7 -41 15 -65t63 -24q35 0 64.5 25.5t35.5 60.5
q1 11 -1 32h94l-4 -33q-7 -71 -69.5 -120.5t-135.5 -49.5q-76 0 -120 51t-32 126q12 78 73 124q36 27 133 56q77 22 85 73q5 30 -12 51t-47 21q-32 0 -55 -22.5t-28 -54.5zM303 508q24 0 38.5 -17.5t10.5 -40.5q-4 -24 -23.5 -41t-43.5 -17t-38.5 17t-10.5 41
q4 23 23.5 40.5t43.5 17.5z" />
    <glyph glyph-name="Agrave" unicode="&#xc0;" horiz-adv-x="703" 
d="M555 189h-346l-116 -189h-101l484 786l236 -786h-101zM530 275l-86 305l-182 -305h268zM359 951l90 44l98 -166l-48 -27z" />
    <glyph glyph-name="Aacute" unicode="&#xc1;" horiz-adv-x="703" 
d="M555 189h-346l-116 -189h-101l484 786l236 -786h-101zM530 275l-86 305l-182 -305h268zM571 995l76 -44l-188 -149l-40 27z" />
    <glyph glyph-name="Acircumflex" unicode="&#xc2;" horiz-adv-x="703" 
d="M555 189h-346l-116 -189h-101l484 786l236 -786h-101zM530 275l-86 305l-182 -305h268zM327 850l182 145l138 -145l-67 -46l-86 96l-117 -96z" />
    <glyph glyph-name="Atilde" unicode="&#xc3;" horiz-adv-x="703" 
d="M555 189h-346l-116 -189h-101l484 786l236 -786h-101zM530 275l-86 305l-182 -305h268zM340 834l-41 40l4 5q31 37 57.5 56.5t62.5 19.5q40 0 85 -26q46 -27 68 -27q36 0 71 48l41 -39q-52 -82 -131 -82q-29 0 -79 26q-50 25 -74 25q-17 0 -35 -14t-29 -32z" />
    <glyph glyph-name="Adieresis" unicode="&#xc4;" horiz-adv-x="703" 
d="M555 189h-346l-116 -189h-101l484 786l236 -786h-101zM530 275l-86 305l-182 -305h268zM398 955q25 0 40 -17.5t11 -42.5t-24.5 -43t-45.5 -18q-26 0 -40.5 18t-10.5 43t24.5 42.5t45.5 17.5zM609 955q25 0 40 -17.5t11 -42.5t-24.5 -43t-45.5 -18q-26 0 -40.5 18
t-10.5 43t24.5 42.5t45.5 17.5z" />
    <glyph glyph-name="Aring" unicode="&#xc5;" horiz-adv-x="703" 
d="M555 189h-346l-116 -189h-101l484 786l236 -786h-101zM530 275l-86 305l-182 -305h268zM508 985q38 0 60.5 -26.5t16.5 -64.5t-37 -64t-69 -26q-37 0 -59 26t-16 64t36.5 64.5t67.5 26.5zM486 849q19 0 35 13t19 32t-8.5 32.5t-30.5 13.5q-18 0 -33.5 -13.5t-18.5 -32.5
t8 -32t29 -13z" />
    <glyph glyph-name="AE" unicode="&#xc6;" horiz-adv-x="997" 
d="M562 189h-343l-116 -189h-103l481 754h330l25 -86h-309l57 -211h301l27 -86h-302l76 -285h311l24 -86h-406zM541 275l-84 292l-184 -292h268z" />
    <glyph glyph-name="Ccedilla" unicode="&#xc7;" horiz-adv-x="661" 
d="M735 719l-17 -109q-72 74 -188 74q-125 0 -225.5 -90.5t-120.5 -217.5q-20 -125 51 -215.5t196 -90.5q115 0 213 78l-17 -111q-100 -53 -207 -53q-162 0 -259 113t-72 276q26 167 161.5 282t302.5 115q106 0 182 -51zM403 -46l-127 -135l-48 27l108 137z" />
    <glyph glyph-name="Egrave" unicode="&#xc8;" horiz-adv-x="521" 
d="M72 0l119 754h405l-13 -86h-311l-34 -211h302l-13 -86h-302l-45 -285h311l-14 -86h-405zM288 951l90 44l98 -166l-48 -27z" />
    <glyph glyph-name="Eacute" unicode="&#xc9;" horiz-adv-x="521" 
d="M72 0l119 754h405l-13 -86h-311l-34 -211h302l-13 -86h-302l-45 -285h311l-14 -86h-405zM480 995l76 -44l-188 -149l-40 27z" />
    <glyph glyph-name="Ecircumflex" unicode="&#xca;" horiz-adv-x="521" 
d="M72 0l119 754h405l-13 -86h-311l-34 -211h302l-13 -86h-302l-45 -285h311l-14 -86h-405zM248 850l182 145l138 -145l-67 -46l-86 96l-117 -96z" />
    <glyph glyph-name="Edieresis" unicode="&#xcb;" horiz-adv-x="521" 
d="M72 0l119 754h405l-13 -86h-311l-34 -211h302l-13 -86h-302l-45 -285h311l-14 -86h-405zM319 955q25 0 40 -17.5t11 -42.5t-24.5 -43t-45.5 -18q-26 0 -40.5 18t-10.5 43t24.5 42.5t45.5 17.5zM530 955q25 0 40 -17.5t11 -42.5t-24.5 -43t-45.5 -18q-26 0 -40.5 18
t-10.5 43t24.5 42.5t45.5 17.5z" />
    <glyph glyph-name="Igrave" unicode="&#xcc;" horiz-adv-x="232" 
d="M282 754l-119 -754h-94l119 754h94zM133 951l90 44l98 -166l-48 -27z" />
    <glyph glyph-name="Iacute" unicode="&#xcd;" horiz-adv-x="232" 
d="M282 754l-119 -754h-94l119 754h94zM325 995l76 -44l-188 -149l-40 27z" />
    <glyph glyph-name="Icircumflex" unicode="&#xce;" horiz-adv-x="232" 
d="M282 754l-119 -754h-94l119 754h94zM91 850l182 145l138 -145l-67 -46l-86 96l-117 -96z" />
    <glyph glyph-name="Idieresis" unicode="&#xcf;" horiz-adv-x="232" 
d="M282 754l-119 -754h-94l119 754h94zM162 955q25 0 40 -17.5t11 -42.5t-24.5 -43t-45.5 -18q-26 0 -40.5 18t-10.5 43t24.5 42.5t45.5 17.5zM373 955q25 0 40 -17.5t11 -42.5t-24.5 -43t-45.5 -18q-26 0 -40.5 18t-10.5 43t24.5 42.5t45.5 17.5z" />
    <glyph glyph-name="Eth" unicode="&#xd0;" horiz-adv-x="665" 
d="M134 442l49 312h156q88 0 160 -23.5t123.5 -68.5t73.5 -117.5t7 -163.5q-29 -185 -163.5 -283t-322.5 -98h-153l57 362h-64l13 80h64zM264 668l-36 -226h134l-13 -80h-134l-43 -276h33q76 0 140 15t120 48t93.5 91t50.5 137q13 80 -6.5 138t-65 90.5t-105 47.5t-135.5 15
h-33z" />
    <glyph glyph-name="Ntilde" unicode="&#xd1;" horiz-adv-x="785" 
d="M63 0l125 790l472 -593l88 557h94l-124 -785l-472 593l-89 -562h-94zM381 834l-41 40l4 5q31 37 57.5 56.5t62.5 19.5q40 0 85 -26q46 -27 68 -27q36 0 71 48l41 -39q-52 -82 -131 -82q-29 0 -79 26q-50 25 -74 25q-17 0 -35 -14t-29 -32z" />
    <glyph glyph-name="Ograve" unicode="&#xd2;" horiz-adv-x="828" 
d="M536 770q162 0 260 -115.5t73 -277.5q-27 -167 -160 -280t-298 -113t-262 113t-70 280q17 106 84.5 196.5t167 143.5t205.5 53zM425 72q123 0 226 88.5t124 216.5q20 127 -51.5 216t-201.5 89q-131 0 -230 -89t-119 -216q-21 -128 54 -216.5t198 -88.5zM431 951l90 44
l98 -166l-48 -27z" />
    <glyph glyph-name="Oacute" unicode="&#xd3;" horiz-adv-x="828" 
d="M536 770q162 0 260 -115.5t73 -277.5q-27 -167 -160 -280t-298 -113t-262 113t-70 280q17 106 84.5 196.5t167 143.5t205.5 53zM425 72q123 0 226 88.5t124 216.5q20 127 -51.5 216t-201.5 89q-131 0 -230 -89t-119 -216q-21 -128 54 -216.5t198 -88.5zM623 995l76 -44
l-188 -149l-40 27z" />
    <glyph glyph-name="Ocircumflex" unicode="&#xd4;" horiz-adv-x="828" 
d="M536 770q162 0 260 -115.5t73 -277.5q-27 -167 -160 -280t-298 -113t-262 113t-70 280q17 106 84.5 196.5t167 143.5t205.5 53zM425 72q123 0 226 88.5t124 216.5q20 127 -51.5 216t-201.5 89q-131 0 -230 -89t-119 -216q-21 -128 54 -216.5t198 -88.5zM389 850l182 145
l138 -145l-67 -46l-86 96l-117 -96z" />
    <glyph glyph-name="Otilde" unicode="&#xd5;" horiz-adv-x="828" 
d="M536 770q162 0 260 -115.5t73 -277.5q-27 -167 -160 -280t-298 -113t-262 113t-70 280q17 106 84.5 196.5t167 143.5t205.5 53zM425 72q123 0 226 88.5t124 216.5q20 127 -51.5 216t-201.5 89q-131 0 -230 -89t-119 -216q-21 -128 54 -216.5t198 -88.5zM402 834l-41 40
l4 5q31 37 57.5 56.5t62.5 19.5q40 0 85 -26q46 -27 68 -27q36 0 71 48l41 -39q-52 -82 -131 -82q-29 0 -79 26q-50 25 -74 25q-17 0 -35 -14t-29 -32z" />
    <glyph glyph-name="Odieresis" unicode="&#xd6;" horiz-adv-x="828" 
d="M536 770q162 0 260 -115.5t73 -277.5q-27 -167 -160 -280t-298 -113t-262 113t-70 280q17 106 84.5 196.5t167 143.5t205.5 53zM425 72q123 0 226 88.5t124 216.5q20 127 -51.5 216t-201.5 89q-131 0 -230 -89t-119 -216q-21 -128 54 -216.5t198 -88.5zM460 955
q25 0 40 -17.5t11 -42.5t-24.5 -43t-45.5 -18q-26 0 -40.5 18t-10.5 43t24.5 42.5t45.5 17.5zM671 955q25 0 40 -17.5t11 -42.5t-24.5 -43t-45.5 -18q-26 0 -40.5 18t-10.5 43t24.5 42.5t45.5 17.5z" />
    <glyph glyph-name="multiply" unicode="&#xd7;" 
d="M104 451l70 61l165 -195l227 195l50 -61l-225 -195l164 -195l-70 -61l-165 195l-227 -195l-50 61l226 195z" />
    <glyph glyph-name="Oslash" unicode="&#xd8;" horiz-adv-x="828" 
d="M747 557l-495 -422q71 -63 173 -63q123 0 226 88.5t124 216.5q15 103 -28 180zM208 189l497 423q-68 70 -183 70q-131 0 -230 -89t-119 -216q-18 -106 35 -188zM10 21l120 102q-75 108 -51 254q17 106 84.5 196.5t167 143.5t205.5 53q146 0 242 -96l111 95l45 -53
l-113 -96q69 -109 48 -243q-27 -167 -160 -280t-298 -113q-139 0 -235 86l-120 -102z" />
    <glyph glyph-name="Ugrave" unicode="&#xd9;" horiz-adv-x="669" 
d="M178 754h94l-70 -445q-39 -237 144 -237q181 0 220 237l70 445h94l-75 -477q-20 -128 -108 -210.5t-215 -82.5t-188 82.5t-41 210.5zM352 951l90 44l98 -166l-48 -27z" />
    <glyph glyph-name="Uacute" unicode="&#xda;" horiz-adv-x="669" 
d="M178 754h94l-70 -445q-39 -237 144 -237q181 0 220 237l70 445h94l-75 -477q-20 -128 -108 -210.5t-215 -82.5t-188 82.5t-41 210.5zM544 995l76 -44l-188 -149l-40 27z" />
    <glyph glyph-name="Ucircumflex" unicode="&#xdb;" horiz-adv-x="669" 
d="M178 754h94l-70 -445q-39 -237 144 -237q181 0 220 237l70 445h94l-75 -477q-20 -128 -108 -210.5t-215 -82.5t-188 82.5t-41 210.5zM310 850l182 145l138 -145l-67 -46l-86 96l-117 -96z" />
    <glyph glyph-name="Udieresis" unicode="&#xdc;" horiz-adv-x="669" 
d="M178 754h94l-70 -445q-39 -237 144 -237q181 0 220 237l70 445h94l-75 -477q-20 -128 -108 -210.5t-215 -82.5t-188 82.5t-41 210.5zM381 955q25 0 40 -17.5t11 -42.5t-24.5 -43t-45.5 -18q-26 0 -40.5 18t-10.5 43t24.5 42.5t45.5 17.5zM592 955q25 0 40 -17.5t11 -42.5
t-24.5 -43t-45.5 -18q-26 0 -40.5 18t-10.5 43t24.5 42.5t45.5 17.5z" />
    <glyph glyph-name="Yacute" unicode="&#xdd;" horiz-adv-x="573" 
d="M292 328l-179 426h108l134 -322l236 322h108l-313 -426l-52 -328h-94zM526 995l76 -44l-188 -149l-40 27z" />
    <glyph glyph-name="Thorn" unicode="&#xde;" horiz-adv-x="495" 
d="M194 176l-28 -176h-94l119 754h94l-22 -140h14q167 0 227 -54.5t43 -163.5q-18 -112 -100 -166t-199 -54h-54zM250 530l-43 -270h30q41 0 73.5 5t65.5 18.5t54.5 42.5t28.5 72q5 34 -3.5 59t-25.5 38.5t-45 21.5t-53 10.5t-57 2.5h-25z" />
    <glyph glyph-name="germandbls" unicode="&#xdf;" horiz-adv-x="580" 
d="M279 -16l14 84q78 0 145 56t80 134q13 84 -34 131.5t-132 53.5l14 88q57 -1 102.5 39.5t54.5 98.5q9 55 -23.5 91t-86.5 36q-27 0 -50 -9t-38 -20.5t-28 -34.5t-20 -38.5t-14 -46.5t-9 -43.5t-7 -44.5l-89 -559h-90l61 386h-40l13 84h40l24 148q41 262 263 262
q93 0 145.5 -61t37.5 -155q-17 -111 -122 -167q68 -23 99.5 -91.5t18.5 -147.5q-19 -117 -116.5 -198t-212.5 -76z" />
    <glyph glyph-name="agrave" unicode="&#xe0;" horiz-adv-x="556" 
d="M274 64q71 0 119 49t60 121q11 71 -22 119.5t-103 48.5q-67 0 -115.5 -49.5t-59.5 -118.5q-11 -70 21 -120t100 -50zM575 468l-74 -468h-90l12 73h-2q-76 -89 -174 -89q-103 0 -151.5 74t-31.5 179q16 100 88 172.5t171 72.5q102 0 148 -92h2l12 78h90zM268 690l90 44
l99 -166l-48 -27z" />
    <glyph glyph-name="aacute" unicode="&#xe1;" horiz-adv-x="556" 
d="M274 64q71 0 119 49t60 121q11 71 -22 119.5t-103 48.5q-67 0 -115.5 -49.5t-59.5 -118.5q-11 -70 21 -120t100 -50zM575 468l-74 -468h-90l12 73h-2q-76 -89 -174 -89q-103 0 -151.5 74t-31.5 179q16 100 88 172.5t171 72.5q102 0 148 -92h2l12 78h90zM455 734l76 -44
l-187 -149l-40 27z" />
    <glyph glyph-name="acircumflex" unicode="&#xe2;" horiz-adv-x="556" 
d="M274 64q71 0 119 49t60 121q11 71 -22 119.5t-103 48.5q-67 0 -115.5 -49.5t-59.5 -118.5q-11 -70 21 -120t100 -50zM575 468l-74 -468h-90l12 73h-2q-76 -89 -174 -89q-103 0 -151.5 74t-31.5 179q16 100 88 172.5t171 72.5q102 0 148 -92h2l12 78h90zM211 589l182 145
l138 -145l-66 -46l-87 96l-116 -96z" />
    <glyph glyph-name="atilde" unicode="&#xe3;" horiz-adv-x="556" 
d="M274 64q71 0 119 49t60 121q11 71 -22 119.5t-103 48.5q-67 0 -115.5 -49.5t-59.5 -118.5q-11 -70 21 -120t100 -50zM575 468l-74 -468h-90l12 73h-2q-76 -89 -174 -89q-103 0 -151.5 74t-31.5 179q16 100 88 172.5t171 72.5q102 0 148 -92h2l12 78h90zM225 573l-41 40
l4 5q31 37 57.5 56.5t62.5 19.5q40 0 85 -26q46 -27 68 -27q33 0 71 48l41 -39q-52 -82 -131 -82q-29 0 -79 26q-50 25 -74 25q-17 0 -35 -14t-29 -32z" />
    <glyph glyph-name="adieresis" unicode="&#xe4;" horiz-adv-x="556" 
d="M274 64q71 0 119 49t60 121q11 71 -22 119.5t-103 48.5q-67 0 -115.5 -49.5t-59.5 -118.5q-11 -70 21 -120t100 -50zM575 468l-74 -468h-90l12 73h-2q-76 -89 -174 -89q-103 0 -151.5 74t-31.5 179q16 100 88 172.5t171 72.5q102 0 148 -92h2l12 78h90zM283 694
q25 0 39.5 -17.5t10.5 -42.5t-24 -43t-45 -18t-40.5 17.5t-11.5 43.5q5 25 25.5 42.5t45.5 17.5zM494 694q25 0 39.5 -17.5t10.5 -42.5t-24 -43t-45 -18t-40.5 17.5t-11.5 43.5q5 25 25.5 42.5t45.5 17.5z" />
    <glyph glyph-name="aring" unicode="&#xe5;" horiz-adv-x="556" 
d="M274 64q71 0 119 49t60 121q11 71 -22 119.5t-103 48.5q-67 0 -115.5 -49.5t-59.5 -118.5q-11 -70 21 -120t100 -50zM575 468l-74 -468h-90l12 73h-2q-76 -89 -174 -89q-103 0 -151.5 74t-31.5 179q16 100 88 172.5t171 72.5q102 0 148 -92h2l12 78h90zM394 734
q38 0 60.5 -26.5t16.5 -64.5t-36.5 -64t-68.5 -26t-60 26.5t-16 63.5q6 38 36.5 64.5t67.5 26.5zM373 598q19 0 34.5 13t18.5 32t-8.5 32.5t-30.5 13.5q-18 0 -33.5 -13.5t-18.5 -32.5t8.5 -32t29.5 -13z" />
    <glyph glyph-name="ae" unicode="&#xe6;" horiz-adv-x="807" 
d="M487 287h262q1 54 -28 85.5t-82 31.5q-52 0 -93.5 -33t-58.5 -84zM256 218q-41 0 -79.5 -20.5t-44.5 -58.5t27 -56.5t75 -18.5q43 0 82.5 19.5t45.5 58.5q7 38 -28 57t-78 19zM827 219h-357q-9 -63 22.5 -109t93.5 -46q49 0 84.5 22.5t70.5 68.5l69 -43
q-42 -60 -105.5 -94t-132.5 -34q-104 0 -166 87q-35 -42 -87 -64.5t-106 -22.5q-76 0 -126.5 39.5t-38.5 113.5q12 73 69.5 115t132.5 42q89 0 135 -43l5 32q19 121 -104 121q-80 0 -130 -15l12 80q69 13 143 13q48 0 90.5 -19.5t57.5 -57.5q74 77 190 77q107 0 152 -69.5
t28 -179.5z" />
    <glyph glyph-name="ccedilla" unicode="&#xe7;" horiz-adv-x="441" 
d="M477 451l-18 -116q-45 63 -124 63q-65 0 -118 -49t-64 -115q-11 -72 27 -119t109 -47q73 0 138 62l-19 -115q-62 -31 -134 -31q-104 0 -166 71t-46 175q17 108 102 180t194 72q72 0 119 -31zM293 -46l-127 -135l-48 27l108 137z" />
    <glyph glyph-name="egrave" unicode="&#xe8;" horiz-adv-x="488" 
d="M508 219h-357q-9 -63 22.5 -109t93.5 -46q49 0 84.5 22.5t70.5 68.5l69 -43q-42 -60 -105.5 -94t-132.5 -34q-105 0 -156 70t-35 176q18 112 88 182t180 70q107 0 152 -69.5t28 -179.5zM166 287h262q1 54 -28 85.5t-82 31.5q-52 0 -93.5 -33t-58.5 -84zM234 690l90 44
l99 -166l-48 -27z" />
    <glyph glyph-name="eacute" unicode="&#xe9;" horiz-adv-x="488" 
d="M508 219h-357q-9 -63 22.5 -109t93.5 -46q49 0 84.5 22.5t70.5 68.5l69 -43q-42 -60 -105.5 -94t-132.5 -34q-105 0 -156 70t-35 176q18 112 88 182t180 70q107 0 152 -69.5t28 -179.5zM166 287h262q1 54 -28 85.5t-82 31.5q-52 0 -93.5 -33t-58.5 -84zM421 734l76 -44
l-187 -149l-40 27z" />
    <glyph glyph-name="ecircumflex" unicode="&#xea;" horiz-adv-x="488" 
d="M508 219h-357q-9 -63 22.5 -109t93.5 -46q49 0 84.5 22.5t70.5 68.5l69 -43q-42 -60 -105.5 -94t-132.5 -34q-105 0 -156 70t-35 176q18 112 88 182t180 70q107 0 152 -69.5t28 -179.5zM166 287h262q1 54 -28 85.5t-82 31.5q-52 0 -93.5 -33t-58.5 -84zM177 589l182 145
l138 -145l-66 -46l-87 96l-116 -96z" />
    <glyph glyph-name="edieresis" unicode="&#xeb;" horiz-adv-x="488" 
d="M508 219h-357q-9 -63 22.5 -109t93.5 -46q49 0 84.5 22.5t70.5 68.5l69 -43q-42 -60 -105.5 -94t-132.5 -34q-105 0 -156 70t-35 176q18 112 88 182t180 70q107 0 152 -69.5t28 -179.5zM166 287h262q1 54 -28 85.5t-82 31.5q-52 0 -93.5 -33t-58.5 -84zM249 694
q25 0 39.5 -17.5t10.5 -42.5t-24 -43t-45 -18t-40.5 17.5t-11.5 43.5q5 25 25.5 42.5t45.5 17.5zM460 694q25 0 39.5 -17.5t10.5 -42.5t-24 -43t-45 -18t-40.5 17.5t-11.5 43.5q5 25 25.5 42.5t45.5 17.5z" />
    <glyph glyph-name="igrave" unicode="&#xec;" horiz-adv-x="254" 
d="M246 468l-74 -468h-90l74 468h90zM102 690l90 44l99 -166l-48 -27z" />
    <glyph glyph-name="iacute" unicode="&#xed;" horiz-adv-x="254" 
d="M246 468l-74 -468h-90l74 468h90zM294 734l76 -44l-187 -149l-40 27z" />
    <glyph glyph-name="icircumflex" unicode="&#xee;" horiz-adv-x="254" 
d="M246 468l-74 -468h-90l74 468h90zM60 589l182 145l138 -145l-66 -46l-87 96l-116 -96z" />
    <glyph glyph-name="idieresis" unicode="&#xef;" horiz-adv-x="254" 
d="M246 468l-74 -468h-90l74 468h90zM132 694q25 0 39.5 -17.5t10.5 -42.5t-24 -43t-45 -18t-40.5 17.5t-11.5 43.5q5 25 25.5 42.5t45.5 17.5zM343 694q25 0 39.5 -17.5t10.5 -42.5t-24 -43t-45 -18t-40.5 17.5t-11.5 43.5q5 25 25.5 42.5t45.5 17.5z" />
    <glyph glyph-name="eth" unicode="&#xf0;" horiz-adv-x="540" 
d="M333 396q-67 0 -121 -48t-65 -115q-11 -66 28.5 -114.5t105.5 -48.5t120.5 48.5t65.5 114.5q11 67 -28.5 115t-105.5 48zM147 638l158 83q-42 57 -94 105l65 51q54 -43 111 -113l158 83l33 -55l-153 -81q74 -107 113 -229.5t22 -229.5q-20 -124 -102.5 -196t-190.5 -72
q-105 0 -165.5 71.5t-44.5 177.5q16 105 100 177t189 72q10 0 19.5 -1t16.5 -2.5t15 -4t12.5 -4.5t11.5 -6t9.5 -5t9 -5.5t7.5 -5.5q-40 120 -104 220l-161 -84z" />
    <glyph glyph-name="ntilde" unicode="&#xf1;" horiz-adv-x="523" 
d="M226 468l-10 -63h2q26 37 67.5 57t85.5 20q92 0 120.5 -54t13.5 -149l-44 -279h-90l42 268q11 69 -3 101.5t-78 32.5q-33 0 -58.5 -12.5t-39 -27.5t-24.5 -45.5t-14.5 -48.5t-9.5 -53l-34 -215h-90l74 468h90zM209 573l-41 40l4 5q31 37 57.5 56.5t62.5 19.5q40 0 85 -26
q46 -27 68 -27q33 0 71 48l41 -39q-52 -82 -131 -82q-29 0 -79 26q-50 25 -74 25q-17 0 -35 -14t-29 -32z" />
    <glyph glyph-name="ograve" unicode="&#xf2;" horiz-adv-x="540" 
d="M346 482q105 0 166 -72t45 -177t-100.5 -177t-189.5 -72t-165.5 71.5t-44.5 177.5q16 105 100 177t189 72zM333 396q-67 0 -121 -48t-65 -115q-11 -66 28.5 -114.5t105.5 -48.5t120.5 48.5t65.5 114.5q11 67 -28.5 115t-105.5 48zM235 690l90 44l99 -166l-48 -27z" />
    <glyph glyph-name="oacute" unicode="&#xf3;" horiz-adv-x="540" 
d="M346 482q105 0 166 -72t45 -177t-100.5 -177t-189.5 -72t-165.5 71.5t-44.5 177.5q16 105 100 177t189 72zM333 396q-67 0 -121 -48t-65 -115q-11 -66 28.5 -114.5t105.5 -48.5t120.5 48.5t65.5 114.5q11 67 -28.5 115t-105.5 48zM447 734l76 -44l-187 -149l-40 27z" />
    <glyph glyph-name="ocircumflex" unicode="&#xf4;" horiz-adv-x="540" 
d="M346 482q105 0 166 -72t45 -177t-100.5 -177t-189.5 -72t-165.5 71.5t-44.5 177.5q16 105 100 177t189 72zM333 396q-67 0 -121 -48t-65 -115q-11 -66 28.5 -114.5t105.5 -48.5t120.5 48.5t65.5 114.5q11 67 -28.5 115t-105.5 48zM203 589l182 145l138 -145l-66 -46
l-87 96l-116 -96z" />
    <glyph glyph-name="otilde" unicode="&#xf5;" horiz-adv-x="540" 
d="M346 482q105 0 166 -72t45 -177t-100.5 -177t-189.5 -72t-165.5 71.5t-44.5 177.5q16 105 100 177t189 72zM333 396q-67 0 -121 -48t-65 -115q-11 -66 28.5 -114.5t105.5 -48.5t120.5 48.5t65.5 114.5q11 67 -28.5 115t-105.5 48zM217 573l-41 40l4 5q31 37 57.5 56.5
t62.5 19.5q40 0 85 -26q46 -27 68 -27q33 0 71 48l41 -39q-52 -82 -131 -82q-29 0 -79 26q-50 25 -74 25q-17 0 -35 -14t-29 -32z" />
    <glyph glyph-name="odieresis" unicode="&#xf6;" horiz-adv-x="540" 
d="M346 482q105 0 166 -72t45 -177t-100.5 -177t-189.5 -72t-165.5 71.5t-44.5 177.5q16 105 100 177t189 72zM333 396q-67 0 -121 -48t-65 -115q-11 -66 28.5 -114.5t105.5 -48.5t120.5 48.5t65.5 114.5q11 67 -28.5 115t-105.5 48zM275 694q25 0 39.5 -17.5t10.5 -42.5
t-24 -43t-45 -18t-40.5 17.5t-11.5 43.5q5 25 25.5 42.5t45.5 17.5zM486 694q25 0 39.5 -17.5t10.5 -42.5t-24 -43t-45 -18t-40.5 17.5t-11.5 43.5q5 25 25.5 42.5t45.5 17.5z" />
    <glyph glyph-name="divide" unicode="&#xf7;" 
d="M67 213l13 86h512l-13 -86h-512zM309 124q25 0 40.5 -18.5t11.5 -44.5q-4 -25 -25 -43t-47 -18t-41 18t-11 43q4 26 25 44.5t47 18.5zM370 512q26 0 41 -18.5t11 -44.5q-4 -25 -25 -43t-47 -18q-25 0 -40.5 17.5t-11.5 43.5t25 44.5t47 18.5z" />
    <glyph glyph-name="oslash" unicode="&#xf8;" horiz-adv-x="540" 
d="M161 141l259 225q-37 30 -87 30q-67 0 -121 -48t-65 -115q-8 -52 14 -92zM456 319l-257 -223q35 -26 82 -26q66 0 120.5 48.5t65.5 114.5q8 49 -11 86zM9 9l78 67q-45 68 -30 157q16 105 100 177t189 72q87 0 147 -52l71 61l39 -43l-72 -63q39 -67 26 -152
q-16 -105 -100.5 -177t-189.5 -72q-85 0 -141 48l-80 -70z" />
    <glyph glyph-name="ugrave" unicode="&#xf9;" horiz-adv-x="512" 
d="M132 468h90l-41 -259q-23 -141 86 -141q61 0 90.5 38t39.5 103l41 259h90l-42 -269q-16 -100 -74.5 -157.5t-158.5 -57.5t-139.5 57.5t-23.5 157.5zM221 690l90 44l99 -166l-48 -27z" />
    <glyph glyph-name="uacute" unicode="&#xfa;" horiz-adv-x="512" 
d="M132 468h90l-41 -259q-23 -141 86 -141q61 0 90.5 38t39.5 103l41 259h90l-42 -269q-16 -100 -74.5 -157.5t-158.5 -57.5t-139.5 57.5t-23.5 157.5zM433 734l76 -44l-187 -149l-40 27z" />
    <glyph glyph-name="ucircumflex" unicode="&#xfb;" horiz-adv-x="512" 
d="M132 468h90l-41 -259q-23 -141 86 -141q61 0 90.5 38t39.5 103l41 259h90l-42 -269q-16 -100 -74.5 -157.5t-158.5 -57.5t-139.5 57.5t-23.5 157.5zM189 589l182 145l138 -145l-66 -46l-87 96l-116 -96z" />
    <glyph glyph-name="udieresis" unicode="&#xfc;" horiz-adv-x="512" 
d="M132 468h90l-41 -259q-23 -141 86 -141q61 0 90.5 38t39.5 103l41 259h90l-42 -269q-16 -100 -74.5 -157.5t-158.5 -57.5t-139.5 57.5t-23.5 157.5zM261 694q25 0 39.5 -17.5t10.5 -42.5t-24 -43t-45 -18t-40.5 17.5t-11.5 43.5q5 25 25.5 42.5t45.5 17.5zM472 694
q25 0 39.5 -17.5t10.5 -42.5t-24 -43t-45 -18t-40.5 17.5t-11.5 43.5q5 25 25.5 42.5t45.5 17.5z" />
    <glyph glyph-name="yacute" unicode="&#xfd;" horiz-adv-x="484" 
d="M214 80l-153 388h105l111 -297l194 297h101l-495 -736h-102zM439 734l76 -44l-187 -149l-40 27z" />
    <glyph glyph-name="thorn" unicode="&#xfe;" horiz-adv-x="556" 
d="M282 868l-75 -478h2q76 92 177 92q98 0 148 -72.5t34 -172.5q-17 -106 -89 -179.5t-176 -73.5q-48 0 -85.5 24t-58.5 65h-2l-54 -341h-90l179 1136h90zM298 64q71 0 119 49t60 121q11 71 -22 119.5t-103 48.5q-67 0 -115.5 -49.5t-59.5 -118.5q-11 -70 21 -120t100 -50z
" />
    <glyph glyph-name="ydieresis" unicode="&#xff;" horiz-adv-x="484" 
d="M214 80l-153 388h105l111 -297l194 297h101l-495 -736h-102zM257 694q25 0 39.5 -17.5t10.5 -42.5t-24 -43t-45 -18t-40.5 17.5t-11.5 43.5q5 25 25.5 42.5t45.5 17.5zM468 694q25 0 39.5 -17.5t10.5 -42.5t-24 -43t-45 -18t-40.5 17.5t-11.5 43.5q5 25 25.5 42.5
t45.5 17.5z" />
    <glyph glyph-name="dotlessi" unicode="&#x131;" horiz-adv-x="254" 
d="M246 468l-74 -468h-90l74 468h90z" />
    <glyph glyph-name="Lslash" unicode="&#x141;" horiz-adv-x="385" 
d="M285 754l-45 -288l131 83l-14 -90l-131 -79l-46 -294h229l-14 -86h-323l51 322l-90 -58l14 91l90 54l54 345h94z" />
    <glyph glyph-name="lslash" unicode="&#x142;" horiz-adv-x="255" 
d="M82 0l65 412l-89 -55l12 81l90 55l59 375h90l-49 -314l91 56l-13 -82l-91 -55l-75 -473h-90z" />
    <glyph glyph-name="OE" unicode="&#x152;" horiz-adv-x="1143" 
d="M718 0l20 126h-2q-62 -68 -147.5 -105.5t-177.5 -36.5q-165 0 -262 113t-70 280q17 106 84.5 196.5t167 143.5t205.5 53q90 -3 165.5 -41t113.5 -107h2l20 132h395l-13 -86h-310l-34 -211h301l-13 -86h-301l-45 -285h310l-14 -86h-395zM425 72q123 0 226 88.5t124 216.5
q20 127 -51.5 216t-201.5 89q-131 0 -230 -89t-119 -216q-21 -128 54 -216.5t198 -88.5z" />
    <glyph glyph-name="oe" unicode="&#x153;" horiz-adv-x="897" 
d="M574 287h262q1 54 -28 85.5t-82 31.5q-52 0 -93.5 -33t-58.5 -84zM333 396q-67 0 -121 -48t-65 -115q-11 -66 28.5 -114.5t105.5 -48.5t120.5 48.5t65.5 114.5q11 67 -28.5 115t-105.5 48zM917 219h-357q-9 -63 22.5 -109t93.5 -46q49 0 84.5 22.5t70.5 68.5l69 -43
q-42 -60 -105.5 -94t-132.5 -34q-60 -1 -108.5 26.5t-69.5 76.5q-41 -49 -99.5 -76.5t-117.5 -26.5q-105 0 -165.5 71.5t-44.5 177.5q16 105 100 177t189 72q58 -2 108.5 -30t75.5 -75q78 100 209 105q107 0 152 -69.5t28 -179.5z" />
    <glyph glyph-name="Scaron" unicode="&#x160;" horiz-adv-x="537" 
d="M586 656l-82 -45q-32 71 -110 71q-48 0 -91.5 -30t-51.5 -77q-10 -68 88 -108l51 -21q84 -35 124.5 -87t26.5 -140q-16 -102 -96.5 -168.5t-182.5 -66.5q-91 0 -146 59.5t-53 151.5l98 20q-10 -62 25.5 -102.5t97.5 -40.5q60 0 106.5 43.5t56.5 103.5q9 55 -21 86.5
t-87 56.5l-48 22q-46 21 -75 42.5t-48 60t-11 88.5q14 88 88.5 141.5t164.5 53.5q129 0 176 -114zM269 949l66 46l85 -96l118 96l51 -46l-184 -145z" />
    <glyph glyph-name="scaron" unicode="&#x161;" horiz-adv-x="384" 
d="M386 400l-79 -39q-5 18 -19.5 29.5t-33.5 11.5t-36 -13.5t-21 -32.5q-1 -9 0.5 -16.5t7.5 -14t11 -11.5t16.5 -11.5t17.5 -10t21.5 -10.5t21.5 -10q47 -23 71 -53t16 -80q-10 -66 -65 -110.5t-121 -44.5q-52 0 -93 28.5t-52 76.5l83 35q22 -60 75 -60q29 0 53 18.5
t29 47.5q3 17 -3.5 28t-21.5 23l-81 47q-42 25 -60 49.5t-11 68.5q9 57 55.5 96.5t103.5 39.5q42 0 72 -21.5t43 -60.5zM141 688l65 46l86 -96l117 96l52 -46l-184 -145z" />
    <glyph glyph-name="Ydieresis" unicode="&#x178;" horiz-adv-x="573" 
d="M292 328l-179 426h108l134 -322l236 322h108l-313 -426l-52 -328h-94zM345 955q25 0 40 -17.5t11 -42.5t-24.5 -43t-45.5 -18q-26 0 -40.5 18t-10.5 43t24.5 42.5t45.5 17.5zM556 955q25 0 40 -17.5t11 -42.5t-24.5 -43t-45.5 -18q-26 0 -40.5 18t-10.5 43t24.5 42.5
t45.5 17.5z" />
    <glyph glyph-name="Zcaron" unicode="&#x17d;" horiz-adv-x="552" 
d="M176 86h382l-14 -86h-535l488 668h-328l13 86h481zM281 949l66 46l85 -96l118 96l51 -46l-184 -145z" />
    <glyph glyph-name="zcaron" unicode="&#x17e;" horiz-adv-x="495" 
d="M190 84h304l-13 -84h-479l378 384h-263l13 84h438zM212 688l65 46l86 -96l117 96l52 -46l-184 -145z" />
    <glyph glyph-name="florin" unicode="&#x192;" 
d="M435 505h129l-20 -68h-131l-103 -303q-16 -48 -27.5 -78t-30 -67t-39 -58.5t-49 -41.5t-66 -29t-84.5 -9h-24l29 86h19q34 0 60.5 11.5t42.5 26t31.5 45t22.5 50t20 59.5l102 308h-65l20 68h70l41 124q32 100 83.5 153.5t145.5 53.5q34 0 59 -7l-29 -84q-17 7 -40 7
q-29 0 -50 -10t-36 -33t-22.5 -40t-18.5 -51z" />
    <glyph glyph-name="circumflex" unicode="&#x2c6;" horiz-adv-x="470" 
d="M168 589l182 145l138 -145l-66 -46l-87 96l-116 -96z" />
    <glyph glyph-name="caron" unicode="&#x2c7;" horiz-adv-x="472" 
d="M185 688l65 46l86 -96l117 96l52 -46l-184 -145z" />
    <glyph glyph-name="uni02C9" unicode="&#x2c9;" horiz-adv-x="500" 
d="M180 694h361l-11 -68h-361z" />
    <glyph glyph-name="breve" unicode="&#x2d8;" horiz-adv-x="490" 
d="M181 694h72q19 -75 90 -75q69 0 115 75h71q-21 -62 -76.5 -101.5t-119.5 -39.5q-63 0 -106.5 39.5t-45.5 101.5z" />
    <glyph glyph-name="dotaccent" unicode="&#x2d9;" horiz-adv-x="360" 
d="M291 694q25 0 39.5 -17.5t10.5 -42.5t-24 -43t-45 -18t-40.5 17.5t-11.5 43.5q5 25 25.5 42.5t45.5 17.5z" />
    <glyph glyph-name="ring" unicode="&#x2da;" horiz-adv-x="360" 
d="M296 734q38 0 60.5 -26.5t16.5 -64.5t-36.5 -64t-68.5 -26t-60 26.5t-16 63.5q6 38 36.5 64.5t67.5 26.5zM275 598q19 0 34.5 13t18.5 32t-8.5 32.5t-30.5 13.5q-18 0 -33.5 -13.5t-18.5 -32.5t8.5 -32t29.5 -13z" />
    <glyph glyph-name="ogonek" unicode="&#x2db;" horiz-adv-x="340" 
d="M162 -16h46v-2q-68 -41 -74 -85q-4 -24 9.5 -35.5t38.5 -11.5q31 0 52 13l-16 -58q-30 -17 -67 -17q-40 0 -67 22t-21 60q10 64 99 114z" />
    <glyph glyph-name="tilde" unicode="&#x2dc;" horiz-adv-x="510" 
d="M202 573l-41 40l4 5q31 37 57.5 56.5t62.5 19.5q40 0 85 -26q46 -27 68 -27q33 0 71 48l41 -39q-52 -82 -131 -82q-29 0 -79 26q-50 25 -74 25q-17 0 -35 -14t-29 -32z" />
    <glyph glyph-name="hungarumlaut" unicode="&#x2dd;" horiz-adv-x="470" 
d="M464 725l76 -44l-188 -149l-39 27zM279 734l76 -44l-187 -149l-40 27z" />
    <glyph glyph-name="uni03A9" unicode="&#x3a9;" horiz-adv-x="745" 
d="M215 70l1 3q-52 57 -78 144t-9 192q25 158 129.5 259t239.5 101t203 -105t45 -250q-17 -109 -72.5 -198.5t-122.5 -142.5l-1 -3h155l-11 -70h-252l8 51q72 46 130.5 136t77.5 211q12 74 -1 140.5t-57.5 113t-113.5 46.5q-102 0 -178 -86.5t-96 -216.5
q-18 -114 11.5 -207.5t85.5 -136.5l-8 -51h-251l11 70h154z" />
    <glyph glyph-name="uni03BC" unicode="&#x3bc;" horiz-adv-x="512" 
d="M132 468h90l-41 -259q-23 -141 86 -141q61 0 90.5 38t39.5 103l41 259h90l-42 -269q-16 -100 -74.5 -157.5t-158.5 -57.5q-55 0 -101 44l-46 -296h-90z" />
    <glyph glyph-name="pi" unicode="&#x3c0;" horiz-adv-x="598" 
d="M648 491h-83l-53 -333q-16 -100 -10 -158h-81q-12 32 7 151l54 340h-185q-22 -114 -68 -265.5t-85 -225.5h-82q42 84 86 229.5t67 261.5q-80 0 -117 -13l-3 57q48 29 156 29h415z" />
    <glyph glyph-name="endash" unicode="&#x2013;" horiz-adv-x="500" 
d="M57 358h500l-12 -75h-500z" />
    <glyph glyph-name="emdash" unicode="&#x2014;" horiz-adv-x="1000" 
d="M187 358h740l-12 -75h-740z" />
    <glyph glyph-name="quoteleft" unicode="&#x2018;" horiz-adv-x="277" 
d="M214 472l-74 31l175 267l52 -23z" />
    <glyph glyph-name="quoteright" unicode="&#x2019;" horiz-adv-x="277" 
d="M260 770l74 -31l-175 -267l-53 23z" />
    <glyph glyph-name="quotesinglbase" unicode="&#x201a;" horiz-adv-x="277" 
d="M183 119l73 -31l-175 -267l-52 23z" />
    <glyph glyph-name="quotedblleft" unicode="&#x201c;" horiz-adv-x="439" 
d="M380 472l-74 31l175 267l52 -23zM214 472l-74 31l175 267l52 -23z" />
    <glyph glyph-name="quotedblright" unicode="&#x201d;" horiz-adv-x="439" 
d="M256 770l74 -31l-175 -267l-53 23zM422 770l74 -31l-175 -267l-53 23z" />
    <glyph glyph-name="quotedblbase" unicode="&#x201e;" horiz-adv-x="439" 
d="M179 119l73 -31l-175 -267l-52 23zM345 119l73 -31l-175 -267l-52 23z" />
    <glyph glyph-name="dagger" unicode="&#x2020;" 
d="M381 868h90l-43 -275h181l-14 -86h-181l-94 -595h-90l94 595h-181l14 86h181z" />
    <glyph glyph-name="daggerdbl" unicode="&#x2021;" 
d="M381 868h90l-37 -239h181l-14 -86h-181l-19 -122h181l-14 -86h-181l-67 -422h-90l67 422h-181l14 86h181l19 122h-181l14 86h181z" />
    <glyph glyph-name="bullet" unicode="&#x2022;" 
d="M319 189q-78 0 -124.5 55t-33.5 133q11 79 75 134t143 55t125 -55t34 -134q-13 -78 -77 -133t-142 -55z" />
    <glyph glyph-name="ellipsis" unicode="&#x2026;" horiz-adv-x="1000" 
d="M516 100q24 0 38.5 -17.5t10.5 -40.5q-4 -24 -24 -41t-44 -17t-38 17t-10 41q4 23 23.5 40.5t43.5 17.5zM850 100q24 0 38.5 -17.5t10.5 -40.5q-4 -24 -24 -41t-44 -17t-38 17t-10 41q4 23 23.5 40.5t43.5 17.5zM182 100q24 0 38.5 -17.5t10.5 -40.5q-4 -24 -24 -41
t-44 -17t-38 17t-10 41q4 23 23.5 40.5t43.5 17.5z" />
    <glyph glyph-name="perthousand" unicode="&#x2030;" horiz-adv-x="1110" 
d="M310 710q-47 0 -86.5 -33t-46.5 -79q-7 -45 22 -78t76 -33t87 33t47 78q7 46 -22.5 79t-76.5 33zM679 770l41 -26l-561 -760l-42 25zM563 267q-47 0 -86.5 -33t-46.5 -79q-7 -45 22 -78t76 -33t87 33t47 78q7 46 -22.5 79t-76.5 33zM320 770q72 0 116 -50.5t33 -121.5
t-71.5 -121t-131.5 -50t-115.5 50t-33.5 121t71 121.5t132 50.5zM573 327q72 0 116 -50.5t33 -121.5t-72 -121t-132 -50t-115 50t-33 121t71 121.5t132 50.5zM965 327q72 0 116 -50.5t33 -121.5t-72 -121t-132 -50t-115 50t-33 121t71 121.5t132 50.5zM955 267
q-47 0 -86.5 -33t-46.5 -79q-7 -45 22 -78t76 -33t87 33t47 78q7 46 -22.5 79t-76.5 33z" />
    <glyph glyph-name="guilsinglleft" unicode="&#x2039;" horiz-adv-x="336" 
d="M162 320l118 -191l-62 -41l-145 232l220 240l49 -41z" />
    <glyph glyph-name="guilsinglright" unicode="&#x203a;" horiz-adv-x="336" 
d="M96 129l180 191l-118 199l63 41l144 -240l-219 -232z" />
    <glyph glyph-name="fraction" unicode="&#x2044;" horiz-adv-x="165" 
d="M399 770l47 -26l-561 -760l-46 28z" />
    <glyph glyph-name="Euro" unicode="&#x20ac;" 
d="M647 723l-14 -87q-49 53 -146 53q-83 0 -137.5 -54.5t-79.5 -147.5h295l-34 -69h-281q-6 -33 -7 -39q-4 -27 -5 -41h253l-34 -69h-221q-5 -100 34 -152.5t119 -52.5q95 0 162 53l-15 -89q-57 -43 -171 -43q-227 0 -217 284h-78l34 69h48q0 13 4 41q0 3 7 39h-70l34 69h53
q82 282 309 282q108 0 158 -46z" />
    <glyph glyph-name="afii61289" unicode="&#x2113;" horiz-adv-x="509" 
d="M471 159l33 -36q-89 -134 -217 -134q-86 0 -119.5 56t-22.5 144l2 14q-6 -5 -30.5 -22.5t-37.5 -26.5l-17 48q84 64 96 75l47 295q21 136 78 198t126 62q64 0 89.5 -49t12.5 -127q-28 -178 -276 -395l-6 -39q-13 -84 12 -125t74 -41q45 0 86 30.5t70 72.5zM285 576
l-36 -231q185 179 206 311q18 112 -55 112q-34 0 -66.5 -46t-48.5 -146z" />
    <glyph glyph-name="trademark" unicode="&#x2122;" horiz-adv-x="940" 
d="M1025 754l-66 -421h-64l56 357h-2l-200 -357h-39l-84 357h-2l-56 -357h-64l66 421h105l74 -297l172 297h104zM493 754l-10 -64h-138l-56 -357h-64l56 357h-138l10 64h340z" />
    <glyph glyph-name="Omega" unicode="&#x2126;" horiz-adv-x="745" 
d="M215 70l1 3q-52 57 -78 144t-9 192q25 158 129.5 259t239.5 101t203 -105t45 -250q-17 -109 -72.5 -198.5t-122.5 -142.5l-1 -3h155l-11 -70h-252l8 51q72 46 130.5 136t77.5 211q12 74 -1 140.5t-57.5 113t-113.5 46.5q-102 0 -178 -86.5t-96 -216.5
q-18 -114 11.5 -207.5t85.5 -136.5l-8 -51h-251l11 70h154z" />
    <glyph glyph-name="estimated" unicode="&#x212e;" horiz-adv-x="1069" 
d="M1032 366h-707q-6 0 -6 -5v-214q0 -12 10 -24q111 -116 267 -116q168 0 282 130h62q-60 -70 -150.5 -111t-194.5 -41q-181 0 -308.5 114.5t-127.5 277.5t127.5 278t308.5 115t309 -115t128 -278v-11zM872 394v215q0 15 -11 26q-113 111 -265 111q-154 0 -266 -115
q-11 -11 -11 -27v-210q0 -7 6 -7h542q5 0 5 7z" />
    <glyph glyph-name="partialdiff" unicode="&#x2202;" horiz-adv-x="573" 
d="M222 725l-18 63q81 60 184 60q52 0 95 -24.5t73.5 -75t39.5 -128t-7 -182.5q-32 -201 -123 -325t-222 -124q-96 0 -136.5 74t-24.5 176q20 124 97.5 201t169.5 77q62 0 101 -32.5t51 -66.5h2q2 10 8 46q22 137 -20 225t-124 88q-77 0 -146 -52zM263 60h2q69 0 128 80.5
t88 194.5q-7 41 -41 77t-88 36q-63 0 -117.5 -61.5t-68.5 -147.5q-13 -79 13.5 -129t83.5 -50z" />
    <glyph glyph-name="Delta" unicode="&#x2206;" horiz-adv-x="676" 
d="M33 0l9 57l372 720h97l140 -719l-9 -58h-609zM128 69h436l-83 407q-4 27 -18.5 100.5t-17.5 99.5h-4q-9 -22 -43.5 -90.5t-46.5 -93.5z" />
    <glyph glyph-name="product" unicode="&#x220f;" horiz-adv-x="850" 
d="M823 680h-112v-785h-83v785h-285v-785h-83v785h-112v77h675v-77z" />
    <glyph glyph-name="summation" unicode="&#x2211;" horiz-adv-x="697" 
d="M675 -105h-530v57l278 374l-266 372v59h501v-73h-387v-3l247 -342l-268 -360v-3h425v-81z" />
    <glyph glyph-name="minus" unicode="&#x2212;" 
d="M67 213l13 86h512l-13 -86h-512z" />
    <glyph glyph-name="uni2215" unicode="&#x2215;" horiz-adv-x="165" 
d="M399 770l47 -26l-561 -760l-46 28z" />
    <glyph glyph-name="uni2219" unicode="&#x2219;" horiz-adv-x="289" 
d="M195 314q24 0 38 -17t11 -41q-5 -24 -24.5 -41t-43.5 -17t-38 17t-10 41q3 23 23 40.5t44 17.5z" />
    <glyph glyph-name="radical" unicode="&#x221a;" horiz-adv-x="722" 
d="M723 902l-232 -1063h-73l-166 501l-78 -30l-16 52l147 57l130 -394q4 -16 11 -46t8 -36h1q1 6 14 82l193 877h61z" />
    <glyph glyph-name="infinity" unicode="&#x221e;" horiz-adv-x="896" 
d="M844 315v-1q0 -75 -48.5 -122.5t-114.5 -47.5q-48 0 -91.5 29.5t-101.5 95.5q-35 -40 -58.5 -62.5t-62 -42.5t-79.5 -20q-65 0 -112 48t-47 118q0 73 47.5 121t119.5 48q55 0 100.5 -32.5t95.5 -92.5q60 67 90 89q50 36 107 36q69 0 112 -45.5t43 -118.5zM296 196h1
q14 0 27.5 3t27 11.5t23 14.5t24 19.5t20.5 20t21 23t19 20.5q-27 34 -37.5 45.5t-35 34.5t-47.5 32t-50 9q-48 0 -76.5 -35t-27.5 -85q0 -47 31 -80t80 -33zM683 429h-1q-24 0 -51.5 -15t-40.5 -26.5t-41.5 -42.5t-29.5 -32q59 -66 92.5 -91.5t73.5 -25.5q47 0 75.5 35
t28.5 79q0 55 -29.5 87t-76.5 32z" />
    <glyph glyph-name="integral" unicode="&#x222b;" horiz-adv-x="504" 
d="M485 912l-13 -59q-18 10 -38 10q-35 0 -53 -26q-35 -41 -35 -192q0 -85 7 -269.5t7 -274.5q0 -151 -45 -219q-33 -58 -107 -58q-41 0 -70 18l14 62q26 -13 47 -13q30 0 49 25q35 47 35 185q0 91 -7.5 278.5t-7.5 273.5q0 169 57 230q39 43 102 43q36 0 58 -14z" />
    <glyph glyph-name="approxequal" unicode="&#x2248;" horiz-adv-x="662" 
d="M580 466l34 -30q-50 -102 -136 -102q-29 0 -52.5 9.5t-69.5 34.5q-61 36 -97 36q-33 0 -56.5 -20.5t-46.5 -58.5l-35 29q24 48 62 75.5t83 27.5q18 0 37.5 -5.5t28.5 -9.5t29.5 -15.5t21.5 -12.5q2 -1 13 -7t13 -7.5t11 -6t12.5 -6t11 -4.5t12.5 -3.5t11.5 -1.5t13.5 -1
q31 0 53.5 19t45.5 60zM580 284l34 -30q-50 -101 -136 -101q-29 0 -54.5 10t-67.5 34q-63 36 -97 36q-33 0 -56 -20.5t-47 -59.5l-35 30q24 47 62 74.5t83 27.5q15 0 29 -2.5t27.5 -8t21.5 -9.5t21.5 -12t17.5 -10q3 -2 14 -8t14.5 -8t12.5 -7t14.5 -6.5t13 -4t15 -3.5
t15.5 -1q30 0 52.5 19t45.5 60z" />
    <glyph glyph-name="notequal" unicode="&#x2260;" horiz-adv-x="676" 
d="M508 541l-47 -102h162v-55h-183l-70 -153h253v-54h-274l-56 -123l-43 19l48 104h-156v54h178l69 153h-247v55h268l55 121z" />
    <glyph glyph-name="lessequal" unicode="&#x2264;" horiz-adv-x="689" 
d="M634 107l-473 240v57l472 239v-65l-414 -201v-2l415 -203v-65zM637 8h-481v56h481v-56z" />
    <glyph glyph-name="greaterequal" unicode="&#x2265;" horiz-adv-x="689" 
d="M162 643l473 -239v-57l-472 -240v65l414 202v2l-415 202v65zM636 8h-479v56h479v-56z" />
    <glyph glyph-name="lozenge" unicode="&#x25ca;" horiz-adv-x="724" 
d="M667 378l-211 -426h-69l-208 426l211 427h69zM590 376l-146 298q-11 26 -20 58h-3q-7 -28 -20 -58l-145 -294l147 -300q12 -30 18 -57h4q7 31 19 56z" />
    </font>
</defs>
</svg>
